<?xml version="1.0" standalone="no"?>
<!DOCTYPE svg PUBLIC "-//W3C//DTD SVG 1.1//EN" "http://www.w3.org/Graphics/SVG/1.1/DTD/svg11.dtd" >
<svg xmlns="http://www.w3.org/2000/svg" xmlns:xlink="http://www.w3.org/1999/xlink" version="1.1">
<metadata>
Created by FontForge 20170731 at Tue Mar  6 19:49:25 2018
 By Aleksey,,,
(c) 2018, Creatype Studio Co.
</metadata>
<defs>
<font id="HalimunRegular" horiz-adv-x="0" >
  <font-face 
    font-family="Halimun"
    font-weight="400"
    font-stretch="normal"
    units-per-em="1000"
    panose-1="0 0 0 0 0 0 0 0 0 0"
    ascent="800"
    descent="-200"
    x-height="303"
    cap-height="1192"
    bbox="-314 -469 2604.75 1466.52"
    underline-thickness="0"
    underline-position="0"
    unicode-range="U+000A-00A0"
  />
<missing-glyph horiz-adv-x="500" 
 />
    <glyph glyph-name=".notdef" horiz-adv-x="500" 
 />
    <glyph glyph-name=".notdef" horiz-adv-x="500" 
 />
    <glyph glyph-name=".null" 
 />
    <glyph glyph-name="nonmarkingreturn" horiz-adv-x="333" 
 />
    <glyph glyph-name="LF" unicode="&#xa;" 
 />
    <glyph glyph-name="controlCR" unicode="&#xd;" 
 />
    <glyph glyph-name="space" unicode=" " horiz-adv-x="372" 
 />
    <glyph glyph-name="exclam" unicode="!" horiz-adv-x="753" 
d="M691 1160q9 -6 11 -17t-4 -20q-305 -443 -523 -935q-6 -14 -21.5 -16t-24.5 11t-2 27q220 496 528 943q6 9 16.5 11t19.5 -4zM133 108q9 5 19.5 1t15 -14t0.5 -20.5t-14 -14.5q-34 -18 -57 -50q-6 -8 -17 -9.5t-19.5 5t-10 17t4.5 19.5q31 42 78 66z" />
    <glyph glyph-name="numbersign" unicode="#" horiz-adv-x="765" 
d="M686 413q11 1 19.5 -6t9 -18t-6.5 -19t-18 -9q-85 -7 -191 -20q-10 -2 -13 -11q-11 -33 -16 -50q-3 -9 3 -15.5t15 -5.5q86 14 167 24q11 2 19.5 -5t9.5 -17.5t-5.5 -19t-17.5 -10.5q-91 -11 -204 -30q-11 -2 -13 -12q-26 -92 -42 -168q-2 -9 -9 -15t-17 -6q-2 0 -5 1
q-11 2 -16.5 11t-3.5 20q13 60 32 133q2 8 -4 14.5t-15 4.5q-32 -6 -50 -9q-10 -2 -12 -13l-24 -111q-2 -10 -11 -16t-20 -3.5t-16.5 11.5t-3.5 19l16 75q2 8 -4.5 14.5t-15.5 4.5q-75 -17 -140 -33q-3 -1 -7 -1q-10 0 -17.5 6.5t-8.5 16.5t4.5 18t15.5 11q79 20 180 41
q10 2 12 12l12 55q2 8 -4 14.5t-15 4.5q-49 -9 -97 -20q-10 -3 -19.5 3t-12 16.5t3.5 19.5t17 12q62 14 133 27q11 2 13 13l35 161q2 10 11 16t19.5 4t16.5 -11.5t4 -19.5l-28 -128q-1 -9 4.5 -15t14.5 -5q35 6 70 11q9 2 12 11q23 63 45 119q4 10 14 14t20 0t14.5 -14
t0.5 -20q-14 -34 -29 -76q-3 -9 2.5 -16t14.5 -5q84 10 152 15zM395 243q9 2 12 11q8 26 16 53q3 8 -3 15t-14 6q-21 -4 -61 -11q-10 -2 -13 -12l-11 -53q-2 -8 4 -14.5t15 -4.5q27 5 55 10z" />
    <glyph glyph-name="dollar" unicode="$" horiz-adv-x="429" 
d="M340 591q42 -45 38 -106q0 -11 -8.5 -18t-19.5 -6.5t-18 9t-6 19.5q4 33 -18 57q0 1 -2 2t-5 2t-5.5 -1t-4.5 -6q-10 -34 -37 -117q0 -18 12 -32q42 -31 65 -74.5t6 -85.5q-14 -38 -53 -56t-84 -18h-1h-18q-12 1 -17 -11q-8 -23 -23.5 -68.5t-23.5 -69.5
q-3 -10 -13 -14.5t-20 -1t-15 13t-1 20.5q22 64 44 129q5 16 -17 31q-28 18 -39 49t-2 62q5 15 20 18t25 -8.5t5 -25.5q-7 -22 22 -53q7 -8 12 7q20 60 40 121q6 10 5 20.5t-18 25.5q-33 28 -46 71q-16 58 22 106q37 51 101 53h1q21 -2 27 16q21 69 41 138q3 10 12.5 15.5
t20 2.5t16 -12.5t1.5 -20.5q-7 -24 -21 -71t-21 -71q-6 -18 3 -25zM252 338q-8 9 -14.5 9t-9.5 -5t-4 -12q-2 -4 -14.5 -40.5t-17.5 -56.5q-5 -21 8 -21h1q29 0 54.5 10t32.5 30q15 38 -36 86zM191 454q3 -4 6 -5.5t5 -1.5t3.5 2t2.5 3.5t2 4.5t1 4l34 108q1 5 1 7t-3 6
t-14 -1q-28 -7 -46 -31q-22 -26 -14 -60q7 -20 22 -36z" />
    <glyph glyph-name="asterisk" unicode="*" horiz-adv-x="362" 
d="M303 497q8 -7 8.5 -18t-7 -19t-18 -8.5t-18.5 7.5q-6 5 -29 25q6 -30 9 -54q2 -11 -5 -19.5t-17 -10.5h-4q-10 0 -17.5 6.5t-8.5 16.5q-5 38 -15 76l-69 -76q-7 -8 -18 -8.5t-19 7t-8.5 18.5t6.5 19l60 66q8 8 6.5 20t-11.5 18q-32 19 -63 35q-10 4 -13.5 14.5t1 20
t15 13.5t20.5 -1q23 -11 52 -28q-1 2 -4 9t-5 11l-1 1q-20 0 -24.5 19.5t12.5 29.5q14 8 29 3q21 -9 31 -30q13 -27 25 -58l49 54q7 8 18 8.5t19 -7t8.5 -18t-6.5 -19.5l-34 -37q-10 -11 -9 -25.5t12 -23.5q23 -18 43 -37z" />
    <glyph glyph-name="at" unicode="@" horiz-adv-x="613" 
d="M332 57q-29 -5 -59 -5q-56 -1 -107 22q-42 17 -71.5 51.5t-40.5 77.5q-11 53 6 103q18 62 62 107.5t105 64.5q63 19 125.5 -3t100.5 -75q36 -58 25.5 -124.5t-63.5 -109.5q-26 -20 -58 -16q-20 3 -31 19q-12 19 -10 41v4l-2 4q-2 1 -4 -2q-15 -19 -34 -35
q-14 -16 -35.5 -18t-38.5 11q-11 9 -7.5 32.5t11 43t15.5 34.5q44 79 113 62q16 -15 23 -36l1 -100q-1 -9 2 -17q1 -2 4 -2q15 -1 26 9q40 32 47.5 82.5t-19.5 93.5q-31 42 -80 59t-99 3q-51 -16 -87.5 -54.5t-51.5 -88.5q-13 -41 -5 -83q9 -34 32 -60t55 -40
q70 -28 143 -13q86 13 148 74q28 30 40 69.5t5 79.5q-2 9 2.5 16t13 9t16 -2.5t9.5 -13.5q10 -50 -5 -99.5t-51 -86.5q-71 -72 -171 -88zM303 306q-12 -4 -23 -13q-12 -11 -24 -31.5t-17.5 -37t-1.5 -18.5q8 -6 34 29t39 65q1 2 -0.5 4.5t-6.5 1.5z" />
    <glyph glyph-name="A" unicode="A" horiz-adv-x="2084" 
d="M1292 303q-192 -292 -380 -292q-107 0 -239.5 53t-247.5 131.5t-209 169.5t-135 166q-54 98 -15 158q47 72 214 59q103 -8 225.5 -34.5t258.5 -69t249 -83t257 -95.5q21 -8 41.5 0t31.5 28q43 83 85 181q131 306 219 626q5 18 24 19q19 2 26 -16t9.5 -84.5t3.5 -244.5
q3 -438 19 -646q1 -18 12 -31.5t28 -19.5q114 -45 236 -55q10 0 18 -7.5t8.5 -18t-7 -18.5t-18.5 -8q-110 5 -213 44q-19 6 -34.5 -7.5t-12.5 -33.5q17 -99 41 -108q10 -4 15 -13.5t1.5 -19.5t-13 -15t-19.5 -2q-58 19 -83 202q-5 34 -38 46q-78 29 -217 83q-8 2 -23 5.5
t-21 4.5t-17.5 2.5t-17 0t-15 -5t-16 -10t-15 -17t-16.5 -24.5zM232 698q-98 0 -122 -37q-22 -34 17 -105q41 -76 134 -163.5t203.5 -160t232.5 -121t215 -48.5q165 0 342 278q15 23 6.5 49.5t-34.5 36.5q-295 113 -530 184t-420 85q-23 2 -44 2zM1637 1081
q-106 -338 -270 -652l40 -16q139 -54 201 -77q24 -9 45 6.5t19 41.5q-12 193 -15 591q0 69 -1 101q0 11 -3.5 16t-8 2.5t-7.5 -13.5z" />
    <glyph glyph-name="A" unicode="&#xc5;" horiz-adv-x="2084" 
d="M1292 303q-192 -292 -380 -292q-107 0 -239.5 53t-247.5 131.5t-209 169.5t-135 166q-54 98 -15 158q47 72 214 59q103 -8 225.5 -34.5t258.5 -69t249 -83t257 -95.5q21 -8 41.5 0t31.5 28q43 83 85 181q131 306 219 626q5 18 24 19q19 2 26 -16t9.5 -84.5t3.5 -244.5
q3 -438 19 -646q1 -18 12 -31.5t28 -19.5q114 -45 236 -55q10 0 18 -7.5t8.5 -18t-7 -18.5t-18.5 -8q-110 5 -213 44q-19 6 -34.5 -7.5t-12.5 -33.5q17 -99 41 -108q10 -4 15 -13.5t1.5 -19.5t-13 -15t-19.5 -2q-58 19 -83 202q-5 34 -38 46q-78 29 -217 83q-8 2 -23 5.5
t-21 4.5t-17.5 2.5t-17 0t-15 -5t-16 -10t-15 -17t-16.5 -24.5zM232 698q-98 0 -122 -37q-22 -34 17 -105q41 -76 134 -163.5t203.5 -160t232.5 -121t215 -48.5q165 0 342 278q15 23 6.5 49.5t-34.5 36.5q-295 113 -530 184t-420 85q-23 2 -44 2zM1637 1081
q-106 -338 -270 -652l40 -16q139 -54 201 -77q24 -9 45 6.5t19 41.5q-12 193 -15 591q0 69 -1 101q0 11 -3.5 16t-8 2.5t-7.5 -13.5z" />
    <glyph glyph-name="A" unicode="&#xc4;" horiz-adv-x="2084" 
d="M1292 303q-192 -292 -380 -292q-107 0 -239.5 53t-247.5 131.5t-209 169.5t-135 166q-54 98 -15 158q47 72 214 59q103 -8 225.5 -34.5t258.5 -69t249 -83t257 -95.5q21 -8 41.5 0t31.5 28q43 83 85 181q131 306 219 626q5 18 24 19q19 2 26 -16t9.5 -84.5t3.5 -244.5
q3 -438 19 -646q1 -18 12 -31.5t28 -19.5q114 -45 236 -55q10 0 18 -7.5t8.5 -18t-7 -18.5t-18.5 -8q-110 5 -213 44q-19 6 -34.5 -7.5t-12.5 -33.5q17 -99 41 -108q10 -4 15 -13.5t1.5 -19.5t-13 -15t-19.5 -2q-58 19 -83 202q-5 34 -38 46q-78 29 -217 83q-8 2 -23 5.5
t-21 4.5t-17.5 2.5t-17 0t-15 -5t-16 -10t-15 -17t-16.5 -24.5zM232 698q-98 0 -122 -37q-22 -34 17 -105q41 -76 134 -163.5t203.5 -160t232.5 -121t215 -48.5q165 0 342 278q15 23 6.5 49.5t-34.5 36.5q-295 113 -530 184t-420 85q-23 2 -44 2zM1637 1081
q-106 -338 -270 -652l40 -16q139 -54 201 -77q24 -9 45 6.5t19 41.5q-12 193 -15 591q0 69 -1 101q0 11 -3.5 16t-8 2.5t-7.5 -13.5z" />
    <glyph glyph-name="A" unicode="&#xc3;" horiz-adv-x="2084" 
d="M1292 303q-192 -292 -380 -292q-107 0 -239.5 53t-247.5 131.5t-209 169.5t-135 166q-54 98 -15 158q47 72 214 59q103 -8 225.5 -34.5t258.5 -69t249 -83t257 -95.5q21 -8 41.5 0t31.5 28q43 83 85 181q131 306 219 626q5 18 24 19q19 2 26 -16t9.5 -84.5t3.5 -244.5
q3 -438 19 -646q1 -18 12 -31.5t28 -19.5q114 -45 236 -55q10 0 18 -7.5t8.5 -18t-7 -18.5t-18.5 -8q-110 5 -213 44q-19 6 -34.5 -7.5t-12.5 -33.5q17 -99 41 -108q10 -4 15 -13.5t1.5 -19.5t-13 -15t-19.5 -2q-58 19 -83 202q-5 34 -38 46q-78 29 -217 83q-8 2 -23 5.5
t-21 4.5t-17.5 2.5t-17 0t-15 -5t-16 -10t-15 -17t-16.5 -24.5zM232 698q-98 0 -122 -37q-22 -34 17 -105q41 -76 134 -163.5t203.5 -160t232.5 -121t215 -48.5q165 0 342 278q15 23 6.5 49.5t-34.5 36.5q-295 113 -530 184t-420 85q-23 2 -44 2zM1637 1081
q-106 -338 -270 -652l40 -16q139 -54 201 -77q24 -9 45 6.5t19 41.5q-12 193 -15 591q0 69 -1 101q0 11 -3.5 16t-8 2.5t-7.5 -13.5z" />
    <glyph glyph-name="A" unicode="&#xc2;" horiz-adv-x="2084" 
d="M1292 303q-192 -292 -380 -292q-107 0 -239.5 53t-247.5 131.5t-209 169.5t-135 166q-54 98 -15 158q47 72 214 59q103 -8 225.5 -34.5t258.5 -69t249 -83t257 -95.5q21 -8 41.5 0t31.5 28q43 83 85 181q131 306 219 626q5 18 24 19q19 2 26 -16t9.5 -84.5t3.5 -244.5
q3 -438 19 -646q1 -18 12 -31.5t28 -19.5q114 -45 236 -55q10 0 18 -7.5t8.5 -18t-7 -18.5t-18.5 -8q-110 5 -213 44q-19 6 -34.5 -7.5t-12.5 -33.5q17 -99 41 -108q10 -4 15 -13.5t1.5 -19.5t-13 -15t-19.5 -2q-58 19 -83 202q-5 34 -38 46q-78 29 -217 83q-8 2 -23 5.5
t-21 4.5t-17.5 2.5t-17 0t-15 -5t-16 -10t-15 -17t-16.5 -24.5zM232 698q-98 0 -122 -37q-22 -34 17 -105q41 -76 134 -163.5t203.5 -160t232.5 -121t215 -48.5q165 0 342 278q15 23 6.5 49.5t-34.5 36.5q-295 113 -530 184t-420 85q-23 2 -44 2zM1637 1081
q-106 -338 -270 -652l40 -16q139 -54 201 -77q24 -9 45 6.5t19 41.5q-12 193 -15 591q0 69 -1 101q0 11 -3.5 16t-8 2.5t-7.5 -13.5z" />
    <glyph glyph-name="A" unicode="&#xc1;" horiz-adv-x="2084" 
d="M1292 303q-192 -292 -380 -292q-107 0 -239.5 53t-247.5 131.5t-209 169.5t-135 166q-54 98 -15 158q47 72 214 59q103 -8 225.5 -34.5t258.5 -69t249 -83t257 -95.5q21 -8 41.5 0t31.5 28q43 83 85 181q131 306 219 626q5 18 24 19q19 2 26 -16t9.5 -84.5t3.5 -244.5
q3 -438 19 -646q1 -18 12 -31.5t28 -19.5q114 -45 236 -55q10 0 18 -7.5t8.5 -18t-7 -18.5t-18.5 -8q-110 5 -213 44q-19 6 -34.5 -7.5t-12.5 -33.5q17 -99 41 -108q10 -4 15 -13.5t1.5 -19.5t-13 -15t-19.5 -2q-58 19 -83 202q-5 34 -38 46q-78 29 -217 83q-8 2 -23 5.5
t-21 4.5t-17.5 2.5t-17 0t-15 -5t-16 -10t-15 -17t-16.5 -24.5zM232 698q-98 0 -122 -37q-22 -34 17 -105q41 -76 134 -163.5t203.5 -160t232.5 -121t215 -48.5q165 0 342 278q15 23 6.5 49.5t-34.5 36.5q-295 113 -530 184t-420 85q-23 2 -44 2zM1637 1081
q-106 -338 -270 -652l40 -16q139 -54 201 -77q24 -9 45 6.5t19 41.5q-12 193 -15 591q0 69 -1 101q0 11 -3.5 16t-8 2.5t-7.5 -13.5z" />
    <glyph glyph-name="A" unicode="&#xc0;" horiz-adv-x="2084" 
d="M1292 303q-192 -292 -380 -292q-107 0 -239.5 53t-247.5 131.5t-209 169.5t-135 166q-54 98 -15 158q47 72 214 59q103 -8 225.5 -34.5t258.5 -69t249 -83t257 -95.5q21 -8 41.5 0t31.5 28q43 83 85 181q131 306 219 626q5 18 24 19q19 2 26 -16t9.5 -84.5t3.5 -244.5
q3 -438 19 -646q1 -18 12 -31.5t28 -19.5q114 -45 236 -55q10 0 18 -7.5t8.5 -18t-7 -18.5t-18.5 -8q-110 5 -213 44q-19 6 -34.5 -7.5t-12.5 -33.5q17 -99 41 -108q10 -4 15 -13.5t1.5 -19.5t-13 -15t-19.5 -2q-58 19 -83 202q-5 34 -38 46q-78 29 -217 83q-8 2 -23 5.5
t-21 4.5t-17.5 2.5t-17 0t-15 -5t-16 -10t-15 -17t-16.5 -24.5zM232 698q-98 0 -122 -37q-22 -34 17 -105q41 -76 134 -163.5t203.5 -160t232.5 -121t215 -48.5q165 0 342 278q15 23 6.5 49.5t-34.5 36.5q-295 113 -530 184t-420 85q-23 2 -44 2zM1637 1081
q-106 -338 -270 -652l40 -16q139 -54 201 -77q24 -9 45 6.5t19 41.5q-12 193 -15 591q0 69 -1 101q0 11 -3.5 16t-8 2.5t-7.5 -13.5z" />
    <glyph glyph-name="B" unicode="B" horiz-adv-x="1105" 
d="M1118 1162q53 -37 82 -94t27 -121q1 -71 -28 -135.5t-83 -109.5q-128 -111 -392 -140q-8 -1 -14.5 -7.5t-7.5 -14.5q-2 -20 17 -27q221 -81 285 -184q45 -66 20 -142q-58 -180 -383 -180q-88 0 -189.5 12.5t-187 32t-126 30t-64.5 18.5q-11 3 -16 12.5t-2 20t12.5 15.5
t20.5 2q52 -16 114.5 -31t143.5 -29.5t158.5 -23t156.5 -6.5t141.5 15t108.5 45.5t61 82.5q18 53 -13 98q-83 132 -467 224q-13 3 -24 -3.5t-15 -19.5q-51 -178 -122 -349q-5 -10 -15 -13.5t-20 1t-13.5 15t1.5 20.5q68 163 116 332q4 14 -3.5 26.5t-21.5 15.5
q-55 11 -96 17q-11 1 -17.5 10t-5 19.5t10 17t19.5 5.5q47 -6 118 -11q11 0 20.5 6.5t13.5 17.5q35 118 97 339q4 15 19 19t25.5 -7.5t6.5 -25.5q-40 -144 -89 -310q-5 -16 5 -29t26 -13q394 -1 552 137q46 38 70.5 92t22.5 114q2 51 -21.5 96.5t-65.5 74.5
q-55 40 -142 61.5t-177.5 22.5t-175.5 -10.5t-149 -32.5q-97 -32 -174.5 -75.5t-123 -87t-70 -81t-27.5 -66.5q-7 -27 16 -43q13 -9 37 -9t58 8.5t82 32t102 59.5q9 6 20 3.5t17 -11.5t3.5 -19.5t-11.5 -16.5q-111 -74 -199 -98t-137 6q-23 15 -34 40.5t-7 53.5
q5 41 34.5 87.5t81 94t133.5 93.5t183 79q69 23 160 35t187.5 10.5t189.5 -25.5t154 -68z" />
    <glyph glyph-name="C" unicode="C" horiz-adv-x="886" 
d="M823 193q-5 -8 -17 -23.5t-48.5 -50t-76.5 -62t-102 -49.5t-125 -22q-74 0 -142 26q-171 63 -240.5 194t-28.5 312q28 120 102.5 246.5t167 222.5t195.5 154.5t183 50.5q93 -2 154 -73q12 -16 31.5 -23t39.5 -3q60 15 122 16q11 0 19 -7.5t8 -18.5t-8 -18.5t-18 -7.5
q-73 -1 -142 -23q-20 -7 -19 -28q-5 -81 -55.5 -171.5t-123 -152t-136.5 -63.5q-21 -2 -40.5 7t-31.5 27q-30 49 21 140q97 159 262 245q20 11 22.5 34.5t-15.5 37.5q-44 28 -95 30q-67 6 -158.5 -47t-177.5 -140.5t-157.5 -208t-98.5 -238.5q-11 -49 -13.5 -95t8.5 -98.5
t37 -97t78 -85.5t126 -68q55 -21 109.5 -23t96 9t82 32.5t67 42.5t50 46t32 35.5t13.5 17.5q6 9 16.5 11t19.5 -4t11 -16.5t-4 -19.5zM562 672q62 1 143.5 88.5t109.5 185.5q5 19 -10 30.5t-32 1.5q-134 -78 -215 -210q-18 -31 -23 -56t1 -32q6 -9 26 -8z" />
    <glyph glyph-name="C" unicode="&#xc7;" horiz-adv-x="886" 
d="M823 193q-5 -8 -17 -23.5t-48.5 -50t-76.5 -62t-102 -49.5t-125 -22q-74 0 -142 26q-171 63 -240.5 194t-28.5 312q28 120 102.5 246.5t167 222.5t195.5 154.5t183 50.5q93 -2 154 -73q12 -16 31.5 -23t39.5 -3q60 15 122 16q11 0 19 -7.5t8 -18.5t-8 -18.5t-18 -7.5
q-73 -1 -142 -23q-20 -7 -19 -28q-5 -81 -55.5 -171.5t-123 -152t-136.5 -63.5q-21 -2 -40.5 7t-31.5 27q-30 49 21 140q97 159 262 245q20 11 22.5 34.5t-15.5 37.5q-44 28 -95 30q-67 6 -158.5 -47t-177.5 -140.5t-157.5 -208t-98.5 -238.5q-11 -49 -13.5 -95t8.5 -98.5
t37 -97t78 -85.5t126 -68q55 -21 109.5 -23t96 9t82 32.5t67 42.5t50 46t32 35.5t13.5 17.5q6 9 16.5 11t19.5 -4t11 -16.5t-4 -19.5zM562 672q62 1 143.5 88.5t109.5 185.5q5 19 -10 30.5t-32 1.5q-134 -78 -215 -210q-18 -31 -23 -56t1 -32q6 -9 26 -8z" />
    <glyph glyph-name="D" unicode="D" horiz-adv-x="1221" 
d="M318 11h-3q-13 0 -21 11t-3 24q43 113 114 339q2 8 -2.5 14t-12.5 5q-124 -14 -232 49q-73 44 -110 120.5t-27 161.5q15 135 134.5 250t316.5 183q171 59 348 38.5t302 -113.5q75 -51 117 -132t40 -171q-4 -104 -45.5 -200.5t-106 -171t-149 -139.5t-174 -111.5t-180 -81
t-168 -53t-138.5 -22.5zM463 396q-60 -192 -100 -306q-3 -7 2.5 -13.5t13.5 -4.5q63 11 135 33t153.5 57t158.5 79.5t148.5 103.5t125.5 125.5t88.5 149.5t37.5 172q1 78 -35 146.5t-101 112.5q-115 85 -278.5 103.5t-322.5 -36.5q-182 -62 -292 -165.5t-124 -223.5
q-9 -69 21.5 -132t90.5 -99q105 -60 223 -40q21 4 27 24q35 113 80 264q2 9 -4 15t-14 3q-79 -22 -147 22q-9 6 -11.5 16.5t3 19.5t16 11.5t20.5 -2.5q41 -26 89.5 -19.5t81.5 42.5q14 15 32 5t12 -30q-29 -104 -97 -326q-2 -9 4 -15t15 -4q92 33 173 87q12 8 26 1.5
t14.5 -22t-12.5 -23.5q-104 -70 -225 -105q-21 -5 -28 -26z" />
    <glyph glyph-name="E" unicode="E" horiz-adv-x="1064" 
d="M991 324q-42 -76 -118.5 -153.5t-166 -139.5t-191.5 -101.5t-188 -39.5h-10q-77 -1 -142 41t-97 112q-79 163 57 346q84 113 229.5 208t285.5 139q10 3 10.5 14t-9.5 15q-119 54 -151 124q-27 58 4 114q36 67 122 94t179 15q92 -13 155.5 -57t77.5 -106q4 -15 -7.5 -25.5
t-26 -5.5t-17.5 20q-10 45 -61.5 78t-127.5 44q-77 10 -148.5 -10t-98.5 -72q-20 -32 -4 -67q13 -29 50.5 -55.5t84 -45.5t85 -31.5t69.5 -19.5q10 -2 16 -11t4 -19.5t-11 -16.5t-19 -4q-49 8 -134.5 -16t-178.5 -69.5t-185.5 -116.5t-150.5 -149q-117 -157 -51 -291
q25 -57 77.5 -90.5t114.5 -32.5q78 -3 174 34t181.5 95.5t159 132.5t112.5 144q62 111 21 173q-16 22 -42 30.5t-53 0.5q-56 -8 -123.5 -50t-123.5 -105.5t-75 -126.5q-14 -39 -3.5 -78.5t41.5 -65.5q12 -10 9 -25t-17.5 -20t-25.5 5q-43 36 -58 90.5t4 107.5
q20 70 79 140.5t136.5 120t149.5 59.5q41 10 81.5 -5t65.5 -49q57 -88 -20 -227z" />
    <glyph glyph-name="E" unicode="&#xcb;" horiz-adv-x="1064" 
d="M991 324q-42 -76 -118.5 -153.5t-166 -139.5t-191.5 -101.5t-188 -39.5h-10q-77 -1 -142 41t-97 112q-79 163 57 346q84 113 229.5 208t285.5 139q10 3 10.5 14t-9.5 15q-119 54 -151 124q-27 58 4 114q36 67 122 94t179 15q92 -13 155.5 -57t77.5 -106q4 -15 -7.5 -25.5
t-26 -5.5t-17.5 20q-10 45 -61.5 78t-127.5 44q-77 10 -148.5 -10t-98.5 -72q-20 -32 -4 -67q13 -29 50.5 -55.5t84 -45.5t85 -31.5t69.5 -19.5q10 -2 16 -11t4 -19.5t-11 -16.5t-19 -4q-49 8 -134.5 -16t-178.5 -69.5t-185.5 -116.5t-150.5 -149q-117 -157 -51 -291
q25 -57 77.5 -90.5t114.5 -32.5q78 -3 174 34t181.5 95.5t159 132.5t112.5 144q62 111 21 173q-16 22 -42 30.5t-53 0.5q-56 -8 -123.5 -50t-123.5 -105.5t-75 -126.5q-14 -39 -3.5 -78.5t41.5 -65.5q12 -10 9 -25t-17.5 -20t-25.5 5q-43 36 -58 90.5t4 107.5
q20 70 79 140.5t136.5 120t149.5 59.5q41 10 81.5 -5t65.5 -49q57 -88 -20 -227z" />
    <glyph glyph-name="E" unicode="&#xca;" horiz-adv-x="1064" 
d="M991 324q-42 -76 -118.5 -153.5t-166 -139.5t-191.5 -101.5t-188 -39.5h-10q-77 -1 -142 41t-97 112q-79 163 57 346q84 113 229.5 208t285.5 139q10 3 10.5 14t-9.5 15q-119 54 -151 124q-27 58 4 114q36 67 122 94t179 15q92 -13 155.5 -57t77.5 -106q4 -15 -7.5 -25.5
t-26 -5.5t-17.5 20q-10 45 -61.5 78t-127.5 44q-77 10 -148.5 -10t-98.5 -72q-20 -32 -4 -67q13 -29 50.5 -55.5t84 -45.5t85 -31.5t69.5 -19.5q10 -2 16 -11t4 -19.5t-11 -16.5t-19 -4q-49 8 -134.5 -16t-178.5 -69.5t-185.5 -116.5t-150.5 -149q-117 -157 -51 -291
q25 -57 77.5 -90.5t114.5 -32.5q78 -3 174 34t181.5 95.5t159 132.5t112.5 144q62 111 21 173q-16 22 -42 30.5t-53 0.5q-56 -8 -123.5 -50t-123.5 -105.5t-75 -126.5q-14 -39 -3.5 -78.5t41.5 -65.5q12 -10 9 -25t-17.5 -20t-25.5 5q-43 36 -58 90.5t4 107.5
q20 70 79 140.5t136.5 120t149.5 59.5q41 10 81.5 -5t65.5 -49q57 -88 -20 -227z" />
    <glyph glyph-name="E" unicode="&#xc9;" horiz-adv-x="1064" 
d="M991 324q-42 -76 -118.5 -153.5t-166 -139.5t-191.5 -101.5t-188 -39.5h-10q-77 -1 -142 41t-97 112q-79 163 57 346q84 113 229.5 208t285.5 139q10 3 10.5 14t-9.5 15q-119 54 -151 124q-27 58 4 114q36 67 122 94t179 15q92 -13 155.5 -57t77.5 -106q4 -15 -7.5 -25.5
t-26 -5.5t-17.5 20q-10 45 -61.5 78t-127.5 44q-77 10 -148.5 -10t-98.5 -72q-20 -32 -4 -67q13 -29 50.5 -55.5t84 -45.5t85 -31.5t69.5 -19.5q10 -2 16 -11t4 -19.5t-11 -16.5t-19 -4q-49 8 -134.5 -16t-178.5 -69.5t-185.5 -116.5t-150.5 -149q-117 -157 -51 -291
q25 -57 77.5 -90.5t114.5 -32.5q78 -3 174 34t181.5 95.5t159 132.5t112.5 144q62 111 21 173q-16 22 -42 30.5t-53 0.5q-56 -8 -123.5 -50t-123.5 -105.5t-75 -126.5q-14 -39 -3.5 -78.5t41.5 -65.5q12 -10 9 -25t-17.5 -20t-25.5 5q-43 36 -58 90.5t4 107.5
q20 70 79 140.5t136.5 120t149.5 59.5q41 10 81.5 -5t65.5 -49q57 -88 -20 -227z" />
    <glyph glyph-name="E" unicode="&#xc8;" horiz-adv-x="1064" 
d="M991 324q-42 -76 -118.5 -153.5t-166 -139.5t-191.5 -101.5t-188 -39.5h-10q-77 -1 -142 41t-97 112q-79 163 57 346q84 113 229.5 208t285.5 139q10 3 10.5 14t-9.5 15q-119 54 -151 124q-27 58 4 114q36 67 122 94t179 15q92 -13 155.5 -57t77.5 -106q4 -15 -7.5 -25.5
t-26 -5.5t-17.5 20q-10 45 -61.5 78t-127.5 44q-77 10 -148.5 -10t-98.5 -72q-20 -32 -4 -67q13 -29 50.5 -55.5t84 -45.5t85 -31.5t69.5 -19.5q10 -2 16 -11t4 -19.5t-11 -16.5t-19 -4q-49 8 -134.5 -16t-178.5 -69.5t-185.5 -116.5t-150.5 -149q-117 -157 -51 -291
q25 -57 77.5 -90.5t114.5 -32.5q78 -3 174 34t181.5 95.5t159 132.5t112.5 144q62 111 21 173q-16 22 -42 30.5t-53 0.5q-56 -8 -123.5 -50t-123.5 -105.5t-75 -126.5q-14 -39 -3.5 -78.5t41.5 -65.5q12 -10 9 -25t-17.5 -20t-25.5 5q-43 36 -58 90.5t4 107.5
q20 70 79 140.5t136.5 120t149.5 59.5q41 10 81.5 -5t65.5 -49q57 -88 -20 -227z" />
    <glyph glyph-name="F" unicode="F" horiz-adv-x="860" 
d="M910 544q11 0 19 -7t9 -18t-6.5 -19t-18.5 -9q-92 -5 -191 -13q-14 -1 -20 -13q-112 -239 -251 -462q-6 -9 -16.5 -11.5t-19.5 3.5t-11.5 16.5t2.5 19.5q11 16 36 57.5t82.5 145t104.5 200.5q6 13 -2 24.5t-21 9.5q-88 -5 -173 -25q-10 -4 -20 0t-14 14t0 20.5t14 14.5
q117 28 237 33q23 2 29 15q30 71 53 132t43 128t29 121.5t7.5 105.5t-17.5 87q-15 34 -45 56t-67 27q-94 17 -185 -9.5t-162 -84.5t-125 -135.5t-82 -163.5q-22 -67 -26 -130.5t20 -121.5t80 -85q9 -5 12.5 -15.5t-1 -20t-15 -13t-20.5 0.5q-91 45 -118 154.5t18 247.5
q25 74 67 143.5t101 128t127.5 99t151.5 56.5t167 0q50 -6 90 -36.5t60 -76.5q73 -168 -95 -567q-5 -13 3 -23.5t21 -9.5q78 5 139 9z" />
    <glyph glyph-name="G" unicode="G" horiz-adv-x="867" 
d="M535 -38q-20 -8 -41 -8q-38 1 -69 24q-22 13 -33.5 35t-9.5 47q9 113 312 295q13 8 17 22l13 43q4 14 -7.5 23t-23.5 2q-46 -28 -92.5 -51.5t-108.5 -46.5t-118 -33t-116.5 -4t-108.5 33q-55 31 -80 90t-17 139q8 85 52 179.5t112.5 181t165.5 158t202 106.5
q108 35 186 11t107 -101q13 -35 14.5 -77t-9 -86.5t-31 -90t-53.5 -90.5t-73.5 -85t-93.5 -75.5t-112 -61.5q-10 -4 -20 0t-14.5 14t-0.5 20t14 14q57 25 106.5 58.5t86.5 70.5t66 78t47 81t27 78.5t8 72.5t-11 60q-22 57 -80.5 72t-146.5 -13q-99 -32 -189 -98.5t-154 -147
t-105 -168.5t-49 -166q-13 -131 71 -178q42 -24 98 -28t108.5 7.5t111.5 35t102 46t86 50t57.5 37.5t23.5 17q14 11 29.5 1t11.5 -28q-6 -29 -15 -69q-4 -16 9 -26.5t27 -2.5q56 30 106 54q10 5 20 1t15 -13.5t1 -20t-13 -14.5q-83 -40 -170 -90q-31 -18 -42 -52
q-95 -288 -206 -332zM655 214v-1q7 18 -7.5 29.5t-30.5 0.5q-177 -122 -182 -187q-2 -20 20 -35q27 -23 60 -10q69 28 140 203z" />
    <glyph glyph-name="H" unicode="H" horiz-adv-x="1329" 
d="M1304 467q15 3 25 -9t4 -26.5t-22 -16.5q-110 -15 -224 -29q-17 -2 -22 -18l-101 -331q-3 -10 -11.5 -15.5t-18.5 -3.5t-16 10.5t-5 18.5q20 150 -16 297q-3 9 -10.5 14t-16.5 4q-120 -11 -225 -19q-18 -1 -23 -18l-83 -298q-3 -11 -12 -16t-19.5 -2t-16 12t-2.5 20
l73 264q4 12 -4.5 22.5t-21.5 9.5q-446 -22 -482 62q-19 44 46 96q111 88 256.5 133t277.5 22q10 -2 18.5 3t10.5 15l134 481q4 15 19 19t25.5 -7t6.5 -26l-135 -483q-2 -9 2 -17.5t13 -12.5q17 -7 33 -16q106 -58 157 -168q7 -16 25 -15l70 8q17 2 22 18l226 744
q3 10 12.5 15t20 2t15.5 -12.5t2 -20.5l-213 -700q-4 -13 5 -24t23 -9q90 11 178 23zM102 419q11 -25 138 -32t328 6q19 1 24 18l43 157q3 11 -3 20.5t-17 11.5q-34 5 -68 5q-232 -7 -414 -151q-14 -11 -21.5 -19.5t-8.5 -11.5zM678 400q73 5 153 12q14 2 20.5 15t-1.5 25
q-43 69 -114 108q-21 12 -43 20l-41 -148q-4 -13 4.5 -23t21.5 -9zM969 233l33 108q4 13 -5 23.5t-22 8.5h-1q-12 -1 -18.5 -10t-3.5 -21q13 -53 17 -109z" />
    <glyph glyph-name="I" unicode="I" horiz-adv-x="614" 
d="M289 28q-51 -32 -111 -33q-65 1 -116 41q-13 8 -11.5 24t16 22t26.5 -4q37 -30 84.5 -31t85.5 26q80 46 158 162t131.5 251t82 276.5t17.5 239.5q-15 120 -83 140q-78 23 -207.5 -23.5t-200.5 -115.5q-42 -42 -35 -66q6 -22 61 -36q11 -3 16.5 -12t3 -19.5t-12 -16.5
t-20.5 -3q-85 21 -99 74q-15 53 50 116q81 79 223.5 129.5t235.5 22.5q101 -30 120 -184q12 -105 -17.5 -254t-86.5 -291t-140.5 -263.5t-170.5 -171.5z" />
    <glyph glyph-name="I" unicode="&#xcf;" horiz-adv-x="614" 
d="M289 28q-51 -32 -111 -33q-65 1 -116 41q-13 8 -11.5 24t16 22t26.5 -4q37 -30 84.5 -31t85.5 26q80 46 158 162t131.5 251t82 276.5t17.5 239.5q-15 120 -83 140q-78 23 -207.5 -23.5t-200.5 -115.5q-42 -42 -35 -66q6 -22 61 -36q11 -3 16.5 -12t3 -19.5t-12 -16.5
t-20.5 -3q-85 21 -99 74q-15 53 50 116q81 79 223.5 129.5t235.5 22.5q101 -30 120 -184q12 -105 -17.5 -254t-86.5 -291t-140.5 -263.5t-170.5 -171.5z" />
    <glyph glyph-name="I" unicode="&#xce;" horiz-adv-x="614" 
d="M289 28q-51 -32 -111 -33q-65 1 -116 41q-13 8 -11.5 24t16 22t26.5 -4q37 -30 84.5 -31t85.5 26q80 46 158 162t131.5 251t82 276.5t17.5 239.5q-15 120 -83 140q-78 23 -207.5 -23.5t-200.5 -115.5q-42 -42 -35 -66q6 -22 61 -36q11 -3 16.5 -12t3 -19.5t-12 -16.5
t-20.5 -3q-85 21 -99 74q-15 53 50 116q81 79 223.5 129.5t235.5 22.5q101 -30 120 -184q12 -105 -17.5 -254t-86.5 -291t-140.5 -263.5t-170.5 -171.5z" />
    <glyph glyph-name="I" unicode="&#xcd;" horiz-adv-x="614" 
d="M289 28q-51 -32 -111 -33q-65 1 -116 41q-13 8 -11.5 24t16 22t26.5 -4q37 -30 84.5 -31t85.5 26q80 46 158 162t131.5 251t82 276.5t17.5 239.5q-15 120 -83 140q-78 23 -207.5 -23.5t-200.5 -115.5q-42 -42 -35 -66q6 -22 61 -36q11 -3 16.5 -12t3 -19.5t-12 -16.5
t-20.5 -3q-85 21 -99 74q-15 53 50 116q81 79 223.5 129.5t235.5 22.5q101 -30 120 -184q12 -105 -17.5 -254t-86.5 -291t-140.5 -263.5t-170.5 -171.5z" />
    <glyph glyph-name="I" unicode="&#xcc;" horiz-adv-x="614" 
d="M289 28q-51 -32 -111 -33q-65 1 -116 41q-13 8 -11.5 24t16 22t26.5 -4q37 -30 84.5 -31t85.5 26q80 46 158 162t131.5 251t82 276.5t17.5 239.5q-15 120 -83 140q-78 23 -207.5 -23.5t-200.5 -115.5q-42 -42 -35 -66q6 -22 61 -36q11 -3 16.5 -12t3 -19.5t-12 -16.5
t-20.5 -3q-85 21 -99 74q-15 53 50 116q81 79 223.5 129.5t235.5 22.5q101 -30 120 -184q12 -105 -17.5 -254t-86.5 -291t-140.5 -263.5t-170.5 -171.5z" />
    <glyph glyph-name="J" unicode="J" horiz-adv-x="963" 
d="M879 377q-36 -75 -81.5 -144t-103.5 -133.5t-121 -112t-137 -76t-148 -28.5q-48 0 -95 12q-71 15 -111.5 75t-29.5 131q6 59 38 122t99.5 130.5t161 125t233.5 105t307 71.5q16 2 27.5 12.5t14.5 26.5q26 124 9.5 222t-72.5 142q-9 7 -22 7.5t-25 -3t-32 -14t-31.5 -17.5
t-33.5 -21q-20 -13 -30 -19t-27.5 -16t-29 -14t-26 -8.5t-27 -4t-24.5 4.5q-43 16 -57 60q-4 10 0.5 20t14.5 14t20 -0.5t14 -14.5q10 -25 24 -29q12 -4 34.5 4.5t39 18t45.5 28.5q28 18 43 26.5t41 21t43.5 15.5t39 -0.5t38.5 -17.5q46 -35 71 -96.5t27 -134.5t-11 -158
q-3 -17 8.5 -29t28.5 -11q39 3 79 5q11 1 19 -6.5t9 -17.5q0 -11 -7 -19t-18 -9q-55 -3 -108 -8q-15 -2 -26 -11.5t-16 -23.5q-31 -105 -79 -203zM832 400q37 74 64 153q6 18 -6.5 32.5t-31.5 10.5q-149 -25 -274.5 -69.5t-210 -97t-145 -112.5t-90 -115.5t-33.5 -105.5
q-10 -52 19.5 -96t81.5 -54q67 -15 129.5 -7.5t123 39t113.5 75.5t101.5 102.5t87.5 119t71 125.5z" />
    <glyph glyph-name="K" unicode="K" horiz-adv-x="2190" 
d="M2514 1446q99 -42 90 -157q-8 -102 -92 -202q-87 -104 -191 -124q-99 -20 -176 52q-11 11 -6 25.5t18 18t26 -5.5q74 -70 185 -16q86 42 144 131q64 99 38 171q-10 26 -31 44q-24 21 -64 28.5t-76.5 6t-89 -13t-80.5 -19.5t-73 -22q-9 -3 -14 -4q-140 -43 -271 -110
q-469 -247 -857 -610q-20 -14 -13 -38q99 -208 256 -376q166 -173 338 -205q236 -44 492 185q11 11 25.5 5.5t18 -18t-6.5 -24.5q-95 -85 -196.5 -134.5t-206.5 -61.5t-212.5 22.5t-206.5 116.5q-215 190 -339 448q-4 7 -14.5 7.5t-16.5 -5.5l-73 -73l-74.5 -74.5
t-30.5 -28.5q-41 -78 -83.5 -142.5t-93.5 -123t-103 -99.5t-111.5 -65t-120.5 -24.5t-129 26t-137 81.5q-12 10 -7.5 23.5t17.5 18t27 -4.5q74 -59 147.5 -79.5t138 -6t127.5 58.5t115.5 105.5t103.5 143.5t91.5 164t78.5 175.5t64.5 170.5t50.5 155q1 4 -3 7t-7 -1
q-55 -44 -110 -61t-116 0t-113 76q-10 12 -5 26.5t17.5 18t24.5 -7.5q44 -49 93.5 -63t96 4.5t87 53t74.5 82.5q5 9 14.5 11.5t18.5 -1t13 -12t2 -18.5q-68 -260 -174 -507q-5 -11 1 -14t14 5q107 104 245 221q226 194 449 342t459 245q99 39 203 63q51 13 79.5 18.5
t77.5 12t89 2.5t74 -19z" />
    <glyph glyph-name="L" unicode="L" horiz-adv-x="1719" 
d="M637 34q-171 -72 -356 -78q-102 0 -166.5 29.5t-86.5 65.5q-13 17 -11.5 38t16.5 36q17 19 42 30.5t49 17.5t63.5 5.5t67.5 -2.5t80 -11t83 -15t93 -19q74 -16 119 -25q31 -6 60 7l14 7q196 89 434 355q8 10 2.5 21.5t-18.5 11.5q-92 -1 -166.5 13t-120.5 35.5
t-79.5 52.5t-49.5 58t-25 57q-23 77 2 165.5t90 165t154 119.5q10 4 20 0.5t15 -13t1.5 -20t-13.5 -15.5q-77 -37 -134.5 -103.5t-80.5 -143t-3 -140.5q28 -96 144 -141.5t302 -34.5q39 3 63 32q43 52 107 131q180 221 264 305q173 172 308 171q27 0 52 -6q8 -1 14.5 -5
t15 -11.5t13.5 -22.5t4 -35q-2 -38 -27 -92.5t-68 -116.5t-108.5 -125.5t-141.5 -117.5t-174.5 -94t-200.5 -54l-18 -2q-39 -5 -65 -35q-226 -262 -411 -371q-12 -8 -9.5 -22t17.5 -16q107 -15 201 -16.5t195.5 13t198.5 55.5t182 108q9 7 19.5 6t17.5 -9.5t5.5 -19.5
t-9.5 -18q-82 -65 -177.5 -106.5t-184.5 -59.5t-192.5 -20t-188 6.5t-183.5 25.5q-31 5 -60 -7zM193 126q-47 0 -84.5 -9.5t-37.5 -27.5q0 -20 25 -34q157 -90 432 -3q13 4 7 12q-6 9 -35 15q-151 40 -307 47zM1920 1150q-26 0 -54.5 -8.5t-54 -20.5t-57.5 -36.5t-56 -44
t-60 -57.5t-59 -62.5t-63 -72.5t-62 -74.5t-66 -81.5q-29 -36 -60 -73q-9 -12 -1.5 -25t22.5 -10q91 20 177 61t151.5 92t120.5 108t91 110.5t56 97.5t21 72q1 19 -6 20q-19 5 -40 5z" />
    <glyph glyph-name="M" unicode="M" horiz-adv-x="1542" 
d="M366 -3q-63 -29 -133 -31q-77 -2 -135 49q-32 29 -43 71.5t3 83.5q5 16 14.5 32.5t33 39t55 40.5t84.5 33.5t119 20.5q11 1 19 -6t9 -17.5t-6 -19t-18 -9.5q-104 -9 -173 -43.5t-87 -87.5q-10 -27 -2.5 -54t28.5 -45q19 -18 48 -27.5t72 -6t90 24.5q71 31 139 87t121 116
t108 147t91 152.5t79.5 163t63.5 147.5t53 134l1 1q44 113 59 143q10 18 30 13q9 -2 14.5 -9.5t5.5 -16.5q-7 -246 -113 -854q-2 -13 10 -18t19 6q133 193 311.5 490.5t219.5 376.5q4 9 13.5 12.5t19 0t14 -12.5t1.5 -19q-9 -33 -32 -114q-29 -103 -47 -169t-51 -193.5
t-48.5 -214.5t-27.5 -181t-1.5 -147t40.5 -63q11 -3 16 -12.5t1.5 -20t-13 -15.5t-19.5 -2q-31 9 -49.5 39t-25.5 73.5t-4 107t13.5 131.5t29 156t39.5 171.5t50 185.5q2 9 -6 12.5t-13 -4.5q-343 -579 -498 -768q-13 -15 -31.5 -6.5t-14.5 28.5q87 469 125 793q1 9 -7.5 11
t-11.5 -6q-30 -75 -56 -136.5t-66.5 -145t-79.5 -151.5t-91.5 -144t-105.5 -133.5t-119 -108.5t-134 -81z" />
    <glyph glyph-name="N" unicode="N" horiz-adv-x="1161" 
d="M367 80q-70 -58 -161 -59q-43 0 -83 17q-31 13 -51 40t-22 61q0 15 4.5 32t18 40t43 49t73.5 50q13 8 26.5 0t13 -23.5t-14.5 -22.5q-54 -30 -83 -62t-28 -62q2 -18 13.5 -33t28.5 -21q49 -18 100 -8.5t89 43.5q33 26 69 78t74 130.5t68.5 147t69 172.5t58.5 160t54 153
q57 165 75 206q4 9 12.5 13.5t17.5 2.5t15 -9.5t5 -17.5q-3 -106 5.5 -234t19 -209.5t31.5 -228.5q22 -160 32 -240q1 -13 14.5 -15t18.5 10q105 262 213 498t171 312q40 49 80.5 78.5t70.5 39t59 8.5t44 -6t27 -13q45 -26 62.5 -74.5t0.5 -96.5q-4 -9 -9.5 -17.5t-16.5 -21
t-28.5 -21t-40.5 -15t-56.5 -5t-73.5 11.5q-11 2 -16.5 11.5t-3 20t11.5 16t20 3.5q64 -16 107.5 -6t56.5 43q10 30 -1.5 60t-39.5 46q-42 26 -99 0.5t-115 -95.5q-69 -85 -206 -395t-235 -570q-8 -20 -28 -17q-10 2 -16 8.5t-7 15.5q-10 143 -49 419q-44 310 -53 469
q-1 10 -5.5 14t-10.5 -0.5t-10 -15.5q-31 -88 -48.5 -137t-52 -142t-58.5 -151.5t-59 -136.5t-64 -129t-63 -98t-65 -71z" />
    <glyph glyph-name="N" unicode="&#xd1;" horiz-adv-x="1161" 
d="M367 80q-70 -58 -161 -59q-43 0 -83 17q-31 13 -51 40t-22 61q0 15 4.5 32t18 40t43 49t73.5 50q13 8 26.5 0t13 -23.5t-14.5 -22.5q-54 -30 -83 -62t-28 -62q2 -18 13.5 -33t28.5 -21q49 -18 100 -8.5t89 43.5q33 26 69 78t74 130.5t68.5 147t69 172.5t58.5 160t54 153
q57 165 75 206q4 9 12.5 13.5t17.5 2.5t15 -9.5t5 -17.5q-3 -106 5.5 -234t19 -209.5t31.5 -228.5q22 -160 32 -240q1 -13 14.5 -15t18.5 10q105 262 213 498t171 312q40 49 80.5 78.5t70.5 39t59 8.5t44 -6t27 -13q45 -26 62.5 -74.5t0.5 -96.5q-4 -9 -9.5 -17.5t-16.5 -21
t-28.5 -21t-40.5 -15t-56.5 -5t-73.5 11.5q-11 2 -16.5 11.5t-3 20t11.5 16t20 3.5q64 -16 107.5 -6t56.5 43q10 30 -1.5 60t-39.5 46q-42 26 -99 0.5t-115 -95.5q-69 -85 -206 -395t-235 -570q-8 -20 -28 -17q-10 2 -16 8.5t-7 15.5q-10 143 -49 419q-44 310 -53 469
q-1 10 -5.5 14t-10.5 -0.5t-10 -15.5q-31 -88 -48.5 -137t-52 -142t-58.5 -151.5t-59 -136.5t-64 -129t-63 -98t-65 -71z" />
    <glyph glyph-name="O" unicode="O" horiz-adv-x="933" 
d="M350 -22q-35 -9 -70 -9q-75 -1 -132 48q-42 35 -65.5 87t-29.5 105.5t-0.5 115t16 109t24.5 94t21 65t10 25.5q52 128 150.5 221t227 136.5t265.5 28.5q15 -1 21 -15.5t-3.5 -26.5t-24.5 -10q-125 13 -242.5 -27t-208 -125.5t-137.5 -201.5q-15 -36 -30 -84.5
t-26.5 -115.5t-12.5 -128t18.5 -120t60.5 -93q32 -27 73.5 -34.5t80.5 6.5q86 26 157 80q17 13 19 33.5t-13 35.5q-82 81 -121 188q-27 80 -18 163t51 155q39 75 87.5 122.5t96 65t91.5 16t84 -19.5q57 -26 96 -81t50 -128.5t-20 -156.5q-22 -56 -88 -147t-150 -174
q-15 -16 -12.5 -37.5t20.5 -33.5q69 -45 143 -78q14 -7 16 -22t-10.5 -24t-26.5 -2q-96 43 -182 103q-12 9 -27 9t-27 -10q-91 -74 -202 -108zM680 835q-58 0 -116 -42t-107 -133q-37 -63 -44.5 -135t15.5 -141q37 -102 116 -176q13 -13 31.5 -13.5t32.5 12.5q84 80 151 170
t88 144q25 69 17 129t-39 105t-77 66q-32 14 -68 14z" />
    <glyph glyph-name="O" unicode="&#xd8;" horiz-adv-x="933" 
d="M350 -22q-35 -9 -70 -9q-75 -1 -132 48q-42 35 -65.5 87t-29.5 105.5t-0.5 115t16 109t24.5 94t21 65t10 25.5q52 128 150.5 221t227 136.5t265.5 28.5q15 -1 21 -15.5t-3.5 -26.5t-24.5 -10q-125 13 -242.5 -27t-208 -125.5t-137.5 -201.5q-15 -36 -30 -84.5
t-26.5 -115.5t-12.5 -128t18.5 -120t60.5 -93q32 -27 73.5 -34.5t80.5 6.5q86 26 157 80q17 13 19 33.5t-13 35.5q-82 81 -121 188q-27 80 -18 163t51 155q39 75 87.5 122.5t96 65t91.5 16t84 -19.5q57 -26 96 -81t50 -128.5t-20 -156.5q-22 -56 -88 -147t-150 -174
q-15 -16 -12.5 -37.5t20.5 -33.5q69 -45 143 -78q14 -7 16 -22t-10.5 -24t-26.5 -2q-96 43 -182 103q-12 9 -27 9t-27 -10q-91 -74 -202 -108zM680 835q-58 0 -116 -42t-107 -133q-37 -63 -44.5 -135t15.5 -141q37 -102 116 -176q13 -13 31.5 -13.5t32.5 12.5q84 80 151 170
t88 144q25 69 17 129t-39 105t-77 66q-32 14 -68 14z" />
    <glyph glyph-name="O" unicode="&#xd6;" horiz-adv-x="933" 
d="M350 -22q-35 -9 -70 -9q-75 -1 -132 48q-42 35 -65.5 87t-29.5 105.5t-0.5 115t16 109t24.5 94t21 65t10 25.5q52 128 150.5 221t227 136.5t265.5 28.5q15 -1 21 -15.5t-3.5 -26.5t-24.5 -10q-125 13 -242.5 -27t-208 -125.5t-137.5 -201.5q-15 -36 -30 -84.5
t-26.5 -115.5t-12.5 -128t18.5 -120t60.5 -93q32 -27 73.5 -34.5t80.5 6.5q86 26 157 80q17 13 19 33.5t-13 35.5q-82 81 -121 188q-27 80 -18 163t51 155q39 75 87.5 122.5t96 65t91.5 16t84 -19.5q57 -26 96 -81t50 -128.5t-20 -156.5q-22 -56 -88 -147t-150 -174
q-15 -16 -12.5 -37.5t20.5 -33.5q69 -45 143 -78q14 -7 16 -22t-10.5 -24t-26.5 -2q-96 43 -182 103q-12 9 -27 9t-27 -10q-91 -74 -202 -108zM680 835q-58 0 -116 -42t-107 -133q-37 -63 -44.5 -135t15.5 -141q37 -102 116 -176q13 -13 31.5 -13.5t32.5 12.5q84 80 151 170
t88 144q25 69 17 129t-39 105t-77 66q-32 14 -68 14z" />
    <glyph glyph-name="O" unicode="&#xd5;" horiz-adv-x="933" 
d="M350 -22q-35 -9 -70 -9q-75 -1 -132 48q-42 35 -65.5 87t-29.5 105.5t-0.5 115t16 109t24.5 94t21 65t10 25.5q52 128 150.5 221t227 136.5t265.5 28.5q15 -1 21 -15.5t-3.5 -26.5t-24.5 -10q-125 13 -242.5 -27t-208 -125.5t-137.5 -201.5q-15 -36 -30 -84.5
t-26.5 -115.5t-12.5 -128t18.5 -120t60.5 -93q32 -27 73.5 -34.5t80.5 6.5q86 26 157 80q17 13 19 33.5t-13 35.5q-82 81 -121 188q-27 80 -18 163t51 155q39 75 87.5 122.5t96 65t91.5 16t84 -19.5q57 -26 96 -81t50 -128.5t-20 -156.5q-22 -56 -88 -147t-150 -174
q-15 -16 -12.5 -37.5t20.5 -33.5q69 -45 143 -78q14 -7 16 -22t-10.5 -24t-26.5 -2q-96 43 -182 103q-12 9 -27 9t-27 -10q-91 -74 -202 -108zM680 835q-58 0 -116 -42t-107 -133q-37 -63 -44.5 -135t15.5 -141q37 -102 116 -176q13 -13 31.5 -13.5t32.5 12.5q84 80 151 170
t88 144q25 69 17 129t-39 105t-77 66q-32 14 -68 14z" />
    <glyph glyph-name="O" unicode="&#xd4;" horiz-adv-x="933" 
d="M350 -22q-35 -9 -70 -9q-75 -1 -132 48q-42 35 -65.5 87t-29.5 105.5t-0.5 115t16 109t24.5 94t21 65t10 25.5q52 128 150.5 221t227 136.5t265.5 28.5q15 -1 21 -15.5t-3.5 -26.5t-24.5 -10q-125 13 -242.5 -27t-208 -125.5t-137.5 -201.5q-15 -36 -30 -84.5
t-26.5 -115.5t-12.5 -128t18.5 -120t60.5 -93q32 -27 73.5 -34.5t80.5 6.5q86 26 157 80q17 13 19 33.5t-13 35.5q-82 81 -121 188q-27 80 -18 163t51 155q39 75 87.5 122.5t96 65t91.5 16t84 -19.5q57 -26 96 -81t50 -128.5t-20 -156.5q-22 -56 -88 -147t-150 -174
q-15 -16 -12.5 -37.5t20.5 -33.5q69 -45 143 -78q14 -7 16 -22t-10.5 -24t-26.5 -2q-96 43 -182 103q-12 9 -27 9t-27 -10q-91 -74 -202 -108zM680 835q-58 0 -116 -42t-107 -133q-37 -63 -44.5 -135t15.5 -141q37 -102 116 -176q13 -13 31.5 -13.5t32.5 12.5q84 80 151 170
t88 144q25 69 17 129t-39 105t-77 66q-32 14 -68 14z" />
    <glyph glyph-name="O" unicode="&#xd3;" horiz-adv-x="933" 
d="M350 -22q-35 -9 -70 -9q-75 -1 -132 48q-42 35 -65.5 87t-29.5 105.5t-0.5 115t16 109t24.5 94t21 65t10 25.5q52 128 150.5 221t227 136.5t265.5 28.5q15 -1 21 -15.5t-3.5 -26.5t-24.5 -10q-125 13 -242.5 -27t-208 -125.5t-137.5 -201.5q-15 -36 -30 -84.5
t-26.5 -115.5t-12.5 -128t18.5 -120t60.5 -93q32 -27 73.5 -34.5t80.5 6.5q86 26 157 80q17 13 19 33.5t-13 35.5q-82 81 -121 188q-27 80 -18 163t51 155q39 75 87.5 122.5t96 65t91.5 16t84 -19.5q57 -26 96 -81t50 -128.5t-20 -156.5q-22 -56 -88 -147t-150 -174
q-15 -16 -12.5 -37.5t20.5 -33.5q69 -45 143 -78q14 -7 16 -22t-10.5 -24t-26.5 -2q-96 43 -182 103q-12 9 -27 9t-27 -10q-91 -74 -202 -108zM680 835q-58 0 -116 -42t-107 -133q-37 -63 -44.5 -135t15.5 -141q37 -102 116 -176q13 -13 31.5 -13.5t32.5 12.5q84 80 151 170
t88 144q25 69 17 129t-39 105t-77 66q-32 14 -68 14z" />
    <glyph glyph-name="O" unicode="&#xd2;" horiz-adv-x="933" 
d="M350 -22q-35 -9 -70 -9q-75 -1 -132 48q-42 35 -65.5 87t-29.5 105.5t-0.5 115t16 109t24.5 94t21 65t10 25.5q52 128 150.5 221t227 136.5t265.5 28.5q15 -1 21 -15.5t-3.5 -26.5t-24.5 -10q-125 13 -242.5 -27t-208 -125.5t-137.5 -201.5q-15 -36 -30 -84.5
t-26.5 -115.5t-12.5 -128t18.5 -120t60.5 -93q32 -27 73.5 -34.5t80.5 6.5q86 26 157 80q17 13 19 33.5t-13 35.5q-82 81 -121 188q-27 80 -18 163t51 155q39 75 87.5 122.5t96 65t91.5 16t84 -19.5q57 -26 96 -81t50 -128.5t-20 -156.5q-22 -56 -88 -147t-150 -174
q-15 -16 -12.5 -37.5t20.5 -33.5q69 -45 143 -78q14 -7 16 -22t-10.5 -24t-26.5 -2q-96 43 -182 103q-12 9 -27 9t-27 -10q-91 -74 -202 -108zM680 835q-58 0 -116 -42t-107 -133q-37 -63 -44.5 -135t15.5 -141q37 -102 116 -176q13 -13 31.5 -13.5t32.5 12.5q84 80 151 170
t88 144q25 69 17 129t-39 105t-77 66q-32 14 -68 14z" />
    <glyph glyph-name="P" unicode="P" horiz-adv-x="871" 
d="M1240 987q19 -19 30.5 -43t15 -59t-11 -83.5t-47.5 -105.5q-43 -73 -119 -139.5t-166 -115.5t-180 -84t-174 -55q-29 -7 -35 -36q-29 -128 -61.5 -199.5t-82.5 -84.5q-15 -5 -25.5 6t-6.5 26t19 18q50 14 98 214q3 13 -5 23.5t-21 10.5h-27q-12 0 -23 1q-59 6 -72 42
q-14 38 38 91q8 7 18.5 7t18.5 -7.5t8 -18.5t-8 -19q-26 -25 -26 -36q39 -10 80 -6q8 1 14.5 2t11 2.5t7.5 4.5l5 5t3.5 5.5t2 5t1 5l0.5 3.5q1 4 11 54q9 43 13 64.5t12.5 60.5t13.5 59.5t13.5 53t15.5 50t16.5 42t19 38t20.5 27.5t23.5 22t26.5 11q11 3 20 -3t11.5 -16.5
t-3 -19.5t-15.5 -12q-12 -3 -22.5 -13.5t-20.5 -31t-18.5 -40.5t-17.5 -53t-15.5 -57t-15 -64.5t-13 -63t-13.5 -64.5q-3 -14 -5 -27q-1 -16 6 -22t16 -4q78 21 160 54.5t164 79t151 106t107 124.5q93 158 22 228q-44 43 -145 53.5t-223.5 -9t-259.5 -68t-249 -116.5
q-20 -13 -39 -26t-42 -30.5t-42 -35t-38.5 -39.5t-31.5 -43.5t-21.5 -46t-9 -48.5t7.5 -51q3 -10 -2 -19.5t-15.5 -13t-20 1.5t-13.5 16q-29 95 33 193t207 187q111 67 252.5 117t274 72.5t246.5 9t168 -66.5z" />
    <glyph glyph-name="Q" unicode="Q" horiz-adv-x="1376" 
d="M450 35q-91 -47 -193 -51q-87 -2 -154 54q-66 56 -49 93q4 9 10.5 15t19 10t25.5 6t37.5 1t46 -2.5t59 -6t70.5 -8.5t86 -11l57 -8q32 -5 59 14q82 56 158.5 135.5t136.5 167t94.5 181t31.5 172.5q-7 157 -169 220q-88 37 -181 18.5t-161 -84.5q-98 -88 -145.5 -227.5
t-17.5 -248.5q11 -51 48.5 -87.5t88.5 -46.5q69 -14 151.5 39.5t133.5 133.5q27 42 35.5 77.5t-3.5 52.5q-7 9 -5 19.5t11 17t19.5 5t16.5 -10.5q24 -32 16 -82t-45 -108q-61 -94 -156.5 -153.5t-183.5 -42.5q-66 13 -114.5 59.5t-63.5 112.5q-34 124 18 277t161 252
q79 76 187 97t209 -21q95 -37 146.5 -105t55.5 -162q5 -104 -48.5 -228t-140.5 -233.5t-193 -195.5q-11 -8 -7 -21t17 -14q102 -12 188 -17.5t178.5 -4.5t172.5 15t139 41q10 4 20 0.5t14.5 -13.5t0.5 -20t-13 -15q-70 -32 -164.5 -47t-204.5 -13.5t-205 9t-213 22.5
q-29 4 -53 -11q-18 -9 -35 -18zM107 108q13 -17 30 -30q101 -86 284 2l-20 3q-255 34 -294 25z" />
    <glyph glyph-name="R" unicode="R" horiz-adv-x="1189" 
d="M1189 767q-48 -81 -126.5 -152t-167 -120t-177.5 -81t-168 -44q-10 -1 -14 -9.5t1 -17.5q30 -48 54.5 -84t61 -79.5t70.5 -71.5t77 -47.5t86 -19.5q8 0 17 1q37 3 70 22t51.5 40t34 48t19.5 37.5t6 17.5q3 10 12.5 15.5t20 2t15.5 -13t2 -19.5q-3 -9 -8 -23t-23.5 -46.5
t-42 -58t-64.5 -48t-89 -27.5h-22q-47 0 -93.5 18t-83.5 46t-75.5 70t-65.5 79.5t-57 85.5q-2 3 -6 2.5t-4 -4.5q-28 -125 -60.5 -195t-81.5 -83q-15 -4 -26 6.5t-7 25.5t19 18q35 10 62.5 89.5t54.5 209.5q1 7 -5 7q-35 0 -69 13q-29 10 -43.5 38t-4.5 58q13 47 43 51
q21 3 41 -15t47 -59q4 -5 6.5 -3.5t4.5 5.5q10 52 15.5 80t15.5 73t17.5 70t18.5 59.5t21.5 54t23.5 40t28.5 31.5t32.5 15q10 3 19.5 -3t12 -16.5t-3 -19.5t-16.5 -12t-21.5 -13.5t-20.5 -30.5t-18.5 -40.5t-17.5 -53.5t-15.5 -57t-15 -64.5t-13.5 -63t-13 -64.5
q0 -2 -0.5 -3.5t-1.5 -3.5q0 -3 2 -6t4 -3q72 11 155.5 40.5t169.5 75t162.5 113t120.5 144.5q93 157 22 227q-44 43 -145 53.5t-223.5 -9t-259.5 -68t-249 -116.5q-20 -12 -39 -25t-42 -31t-42 -35.5t-38.5 -39.5t-31.5 -43t-21.5 -46t-9 -49t7.5 -50q3 -11 -2 -20.5
t-15.5 -12.5t-20 2t-13.5 15q-29 95 33 193t207 187q111 68 252.5 118t274 72t246.5 8.5t168 -66.5q19 -18 30 -42.5t15 -59t-10.5 -83.5t-47.5 -106zM408 425q5 -2 11 -4q3 0 4.5 1t-0.5 5q-13 19 -27 36q-4 5 -6 -3q-9 -24 18 -35z" />
    <glyph glyph-name="S" unicode="S" horiz-adv-x="852" 
d="M726 140q-14 -41 -47.5 -72t-79.5 -48.5t-95.5 -25.5t-103.5 -8q-24 0 -46 1q-50 3 -98.5 14t-92.5 29.5t-74 48.5t-37 67q-13 71 64 145t242 149q14 7 26.5 -1.5t11 -24t-15.5 -21.5q-76 -35 -131.5 -69t-83 -58.5t-43 -48t-18 -37t-0.5 -24.5q8 -44 80 -77t174 -39
q69 -5 134 5t117.5 38.5t66.5 72.5q9 27 10 54.5t-8 56.5t-19 54t-32.5 56.5t-39 53.5t-48 56t-49.5 53t-54 54q-33 35 -50.5 52.5t-48 51t-46.5 53.5t-38.5 52t-33 54.5t-21 53t-11.5 55.5t4.5 54t18.5 56q37 74 126 100.5t219 2.5q120 -23 241 -80t205.5 -135.5
t90.5 -150.5q9 -100 -127 -152q-152 -42 -308 -19q-10 2 -16.5 10.5t-5 19t10 17t18.5 5.5q143 -21 282 16q99 38 94 98q-5 55 -79.5 121.5t-188.5 121.5t-227 76q-38 7 -75 9.5t-80.5 -2t-79 -25t-53.5 -56.5q-11 -22 -14.5 -45.5t-2.5 -44.5t11.5 -47t20 -45.5t30.5 -47.5
t35.5 -46t43 -49t44.5 -47.5t49 -49.5q34 -34 51 -52t48 -51t47 -53.5t39.5 -52.5t35 -55.5t24.5 -54t16 -57t1.5 -56.5t-10.5 -59z" />
    <glyph glyph-name="T" unicode="T" horiz-adv-x="484" 
d="M1346.5 946.5q5.5 -9.5 3 -20t-11.5 -16.5q-36 -21 -75.5 -32.5t-74.5 -16t-81.5 1t-79 12t-86 23t-83.5 27.5t-88 33q-120 45 -183 65q-16 5 -30.5 -3t-18.5 -24q-165 -623 -295 -950q-4 -10 -14 -14.5t-20 -0.5t-14 14t0 20q128 324 293 945q4 16 -5 30t-25 17
q-225 55 -443 -22q-60 -22 -99.5 -54.5t-56.5 -63t-22.5 -65.5t-3.5 -55.5t7 -39.5q18 -67 65.5 -109t95.5 -34q16 3 26 -9t4 -26.5t-21 -16.5q-11 -2 -23 -2q-64 0 -120.5 52t-77.5 132q-7 36 -9 73t11.5 76t37 73.5t67 65.5t101.5 52q61 23 126 34t118.5 14t119.5 -5.5
t110.5 -17.5t111.5 -30t102.5 -34t102.5 -38q57 -21 86 -31.5t79 -27t80 -22.5t72.5 -11.5t73.5 -2t66 14t66 28.5q9 6 19.5 3.5t16 -12z" />
    <glyph glyph-name="U" unicode="U" horiz-adv-x="1329" 
d="M627 -10q-6 -1 -15 -1q-118 0 -168 69q-17 23 -25.5 55t-10.5 63t5.5 76.5t15 78.5t25 88.5t28.5 86.5t32 91q17 48 26 73.5t23 68t19.5 67.5t11 55t4 49.5t-8.5 32.5q-9 15 -26 17q-77 14 -166.5 -16t-164 -93.5t-108.5 -140.5q-14 -33 -19 -66t1 -73.5t35 -82.5t79 -81
q9 -6 10.5 -17t-5 -19.5t-17 -10t-19.5 4.5q-98 74 -127.5 170t15.5 197q38 88 121.5 158.5t184.5 104t190 16.5q41 -6 62 -42q12 -21 13.5 -54t-2.5 -64t-19.5 -83.5t-27.5 -87t-36 -100.5q-22 -63 -33.5 -97t-30 -92t-25 -94.5t-12 -80t1 -74.5t22.5 -53q37 -50 139 -47
q61 2 116 21.5t98 47t83 74t68.5 87t57.5 104t46 107t38 113t30.5 105.5t25.5 100q32 127 48 169q3 9 4.5 13t4.5 10t5 9t5.5 6t6.5 4t7.5 1t9.5 -2q17 -6 17.5 -20.5t-10.5 -47.5q-44 -147 -74 -272t-45 -211.5t-20 -156t-2.5 -111.5t11 -72.5t17.5 -43.5t19 -21
q9 -6 11 -16.5t-4 -19.5t-17 -11t-20 4q-84 58 -70 278q1 11 -9 14t-15 -6q-165 -298 -441 -308z" />
    <glyph glyph-name="U" unicode="&#xdc;" horiz-adv-x="1329" 
d="M627 -10q-6 -1 -15 -1q-118 0 -168 69q-17 23 -25.5 55t-10.5 63t5.5 76.5t15 78.5t25 88.5t28.5 86.5t32 91q17 48 26 73.5t23 68t19.5 67.5t11 55t4 49.5t-8.5 32.5q-9 15 -26 17q-77 14 -166.5 -16t-164 -93.5t-108.5 -140.5q-14 -33 -19 -66t1 -73.5t35 -82.5t79 -81
q9 -6 10.5 -17t-5 -19.5t-17 -10t-19.5 4.5q-98 74 -127.5 170t15.5 197q38 88 121.5 158.5t184.5 104t190 16.5q41 -6 62 -42q12 -21 13.5 -54t-2.5 -64t-19.5 -83.5t-27.5 -87t-36 -100.5q-22 -63 -33.5 -97t-30 -92t-25 -94.5t-12 -80t1 -74.5t22.5 -53q37 -50 139 -47
q61 2 116 21.5t98 47t83 74t68.5 87t57.5 104t46 107t38 113t30.5 105.5t25.5 100q32 127 48 169q3 9 4.5 13t4.5 10t5 9t5.5 6t6.5 4t7.5 1t9.5 -2q17 -6 17.5 -20.5t-10.5 -47.5q-44 -147 -74 -272t-45 -211.5t-20 -156t-2.5 -111.5t11 -72.5t17.5 -43.5t19 -21
q9 -6 11 -16.5t-4 -19.5t-17 -11t-20 4q-84 58 -70 278q1 11 -9 14t-15 -6q-165 -298 -441 -308z" />
    <glyph glyph-name="U" unicode="&#xdb;" horiz-adv-x="1329" 
d="M627 -10q-6 -1 -15 -1q-118 0 -168 69q-17 23 -25.5 55t-10.5 63t5.5 76.5t15 78.5t25 88.5t28.5 86.5t32 91q17 48 26 73.5t23 68t19.5 67.5t11 55t4 49.5t-8.5 32.5q-9 15 -26 17q-77 14 -166.5 -16t-164 -93.5t-108.5 -140.5q-14 -33 -19 -66t1 -73.5t35 -82.5t79 -81
q9 -6 10.5 -17t-5 -19.5t-17 -10t-19.5 4.5q-98 74 -127.5 170t15.5 197q38 88 121.5 158.5t184.5 104t190 16.5q41 -6 62 -42q12 -21 13.5 -54t-2.5 -64t-19.5 -83.5t-27.5 -87t-36 -100.5q-22 -63 -33.5 -97t-30 -92t-25 -94.5t-12 -80t1 -74.5t22.5 -53q37 -50 139 -47
q61 2 116 21.5t98 47t83 74t68.5 87t57.5 104t46 107t38 113t30.5 105.5t25.5 100q32 127 48 169q3 9 4.5 13t4.5 10t5 9t5.5 6t6.5 4t7.5 1t9.5 -2q17 -6 17.5 -20.5t-10.5 -47.5q-44 -147 -74 -272t-45 -211.5t-20 -156t-2.5 -111.5t11 -72.5t17.5 -43.5t19 -21
q9 -6 11 -16.5t-4 -19.5t-17 -11t-20 4q-84 58 -70 278q1 11 -9 14t-15 -6q-165 -298 -441 -308z" />
    <glyph glyph-name="U" unicode="&#xda;" horiz-adv-x="1329" 
d="M627 -10q-6 -1 -15 -1q-118 0 -168 69q-17 23 -25.5 55t-10.5 63t5.5 76.5t15 78.5t25 88.5t28.5 86.5t32 91q17 48 26 73.5t23 68t19.5 67.5t11 55t4 49.5t-8.5 32.5q-9 15 -26 17q-77 14 -166.5 -16t-164 -93.5t-108.5 -140.5q-14 -33 -19 -66t1 -73.5t35 -82.5t79 -81
q9 -6 10.5 -17t-5 -19.5t-17 -10t-19.5 4.5q-98 74 -127.5 170t15.5 197q38 88 121.5 158.5t184.5 104t190 16.5q41 -6 62 -42q12 -21 13.5 -54t-2.5 -64t-19.5 -83.5t-27.5 -87t-36 -100.5q-22 -63 -33.5 -97t-30 -92t-25 -94.5t-12 -80t1 -74.5t22.5 -53q37 -50 139 -47
q61 2 116 21.5t98 47t83 74t68.5 87t57.5 104t46 107t38 113t30.5 105.5t25.5 100q32 127 48 169q3 9 4.5 13t4.5 10t5 9t5.5 6t6.5 4t7.5 1t9.5 -2q17 -6 17.5 -20.5t-10.5 -47.5q-44 -147 -74 -272t-45 -211.5t-20 -156t-2.5 -111.5t11 -72.5t17.5 -43.5t19 -21
q9 -6 11 -16.5t-4 -19.5t-17 -11t-20 4q-84 58 -70 278q1 11 -9 14t-15 -6q-165 -298 -441 -308z" />
    <glyph glyph-name="U" unicode="&#xd9;" horiz-adv-x="1329" 
d="M627 -10q-6 -1 -15 -1q-118 0 -168 69q-17 23 -25.5 55t-10.5 63t5.5 76.5t15 78.5t25 88.5t28.5 86.5t32 91q17 48 26 73.5t23 68t19.5 67.5t11 55t4 49.5t-8.5 32.5q-9 15 -26 17q-77 14 -166.5 -16t-164 -93.5t-108.5 -140.5q-14 -33 -19 -66t1 -73.5t35 -82.5t79 -81
q9 -6 10.5 -17t-5 -19.5t-17 -10t-19.5 4.5q-98 74 -127.5 170t15.5 197q38 88 121.5 158.5t184.5 104t190 16.5q41 -6 62 -42q12 -21 13.5 -54t-2.5 -64t-19.5 -83.5t-27.5 -87t-36 -100.5q-22 -63 -33.5 -97t-30 -92t-25 -94.5t-12 -80t1 -74.5t22.5 -53q37 -50 139 -47
q61 2 116 21.5t98 47t83 74t68.5 87t57.5 104t46 107t38 113t30.5 105.5t25.5 100q32 127 48 169q3 9 4.5 13t4.5 10t5 9t5.5 6t6.5 4t7.5 1t9.5 -2q17 -6 17.5 -20.5t-10.5 -47.5q-44 -147 -74 -272t-45 -211.5t-20 -156t-2.5 -111.5t11 -72.5t17.5 -43.5t19 -21
q9 -6 11 -16.5t-4 -19.5t-17 -11t-20 4q-84 58 -70 278q1 11 -9 14t-15 -6q-165 -298 -441 -308z" />
    <glyph glyph-name="V" unicode="V" horiz-adv-x="1134" 
d="M1085 357q-115 -178 -259.5 -275.5t-292.5 -97.5q-34 0 -69 6q-42 6 -64 43q-12 20 -16 47.5t2.5 66.5t13.5 71.5t26 88.5t31 90t37 101q22 59 33.5 90.5t30 85t26.5 86.5t15.5 71.5t6 64.5t-10.5 42q-11 19 -32 22q-77 14 -166.5 -16t-164 -93.5t-108.5 -140.5
q-14 -33 -19 -66.5t1 -73.5t35 -82t79 -81q9 -6 10.5 -17t-5 -19.5t-17 -10t-19.5 4.5q-98 74 -127.5 170t15.5 196q38 89 121.5 159.5t184.5 104t190 16.5q45 -7 67 -47q13 -21 16.5 -50.5t-3 -71t-14 -76t-26.5 -92t-31.5 -92t-37.5 -102.5q-22 -57 -32.5 -87t-28.5 -81.5
t-26 -83t-15.5 -68.5t-6 -61.5t9.5 -39.5q10 -16 28 -17q147 -24 297.5 67t270.5 277q112 173 147 348.5t-24 264.5q-8 12 -1.5 26t22 15t23.5 -12q51 -79 45 -195.5t-51 -240t-117 -235.5z" />
    <glyph glyph-name="W" unicode="W" horiz-adv-x="1508" 
d="M686 37q-47 -24 -100 -24q-54 0 -103 24q-33 15 -55.5 38t-30.5 56t-12 63t6 76.5t18 79t28.5 87.5t33 85t36.5 88q19 45 29 69t25.5 64t22.5 64t13.5 52.5t5.5 47.5t-7 32q-11 19 -33 21q-76 14 -166 -16t-164.5 -93.5t-108.5 -140.5q-14 -33 -19 -66t1 -73.5t35 -82.5
t79 -81q9 -6 10.5 -17t-5 -19.5t-17 -10t-19.5 4.5q-98 74 -127.5 170t15.5 197q38 88 121.5 158.5t184.5 104t190 16.5q46 -6 69 -47q12 -21 12.5 -53.5t-5 -62t-23.5 -80.5t-31 -83t-39 -95q-18 -42 -27 -63.5t-25 -62t-23.5 -64t-19 -59.5t-15 -58.5t-7.5 -52t0 -49
t11 -39.5t21 -34t34 -24q37 -19 79 -19t79 19q101 50 191.5 224.5t148.5 434.5q2 10 11 16t19 4.5t16.5 -10t5.5 -18.5q-8 -68 -29 -201q-12 -73 -17 -110.5t-11 -97t-4.5 -94t10 -70.5t25.5 -57q39 -42 96 -39q55 0 106 36.5t90 99t68 133.5t48 148q45 180 31 327t-79 180
q-14 6 -15 21.5t12 24t26 1.5q63 -32 90.5 -126.5t21.5 -208t-36 -232.5q-17 -70 -41 -134t-58 -124.5t-73 -104.5t-89 -69.5t-103 -23.5q-81 -3 -135 57q-58 70 -45 241q1 11 -10 14t-16 -7q-103 -219 -232 -282z" />
    <glyph glyph-name="X" unicode="X" horiz-adv-x="1264" 
d="M1220 76q10 -1 16.5 -9t6 -18.5t-8 -17.5t-18.5 -7q-2 0 -4 1q-53 8 -103.5 39.5t-97 85t-85.5 112t-83 136.5q-7 11 -19.5 11.5t-19.5 -9.5q-278 -399 -498 -399q-58 0 -105 23.5t-78 62t-49 84.5t-23 96q-5 60 9.5 113.5t54 95.5t100.5 53q10 2 19 -4.5t11 -17
t-4.5 -19.5t-16.5 -11q-45 -8 -74.5 -40.5t-40 -75t-5.5 -90.5q4 -55 27 -103t69 -81t106 -33q202 0 482 417q8 12 2 24q-15 28 -45 85q-39 73 -59.5 111.5t-57.5 103.5t-62 99.5t-61.5 79t-66.5 65.5t-66 34t-72 9q-80 -11 -87 -76q-6 -63 46.5 -144t113.5 -102
q22 -10 44.5 -2.5t33.5 29.5q6 9 16.5 11t19.5 -3.5t11.5 -16.5t-3.5 -20q-21 -36 -60.5 -49.5t-78.5 1.5q-52 18 -99.5 69t-74 115t-21.5 117q2 18 8 34.5t19.5 36t40.5 33.5t64 19q44 5 86 -8t76.5 -33.5t74.5 -67t67 -82.5t67.5 -106t62.5 -111t65 -122q7 -13 10 -20
q10 -19 17.5 -27t14.5 -5t11.5 9t14.5 21q79 129 192 341q55 102 70.5 126t30.5 27q9 2 17.5 -2t12 -13t0.5 -18.5t-11 -14.5q-11 -13 -73 -130q-139 -258 -234 -407q-8 -11 -1 -23q45 -83 83 -143t83.5 -117.5t93 -90.5t96.5 -41z" />
    <glyph glyph-name="Y" unicode="Y" horiz-adv-x="1126" 
d="M765 -70q-28 -17 -60 -18q-15 0 -29 5q-31 6 -50.5 30t-18.5 54q0 42 36 100t95 120t122.5 118.5t130.5 109.5q9 7 13 18l50 143q4 12 -7 18t-19 -4q-138 -200 -274 -236q-55 -15 -110.5 -2.5t-99.5 50.5q-35 26 -56 64.5t-24 82.5q-5 49 10 105t42 107t52 89t51 70
q16 18 14 29.5t-27 7.5q-209 -40 -380 -166q-25 -20 -45 -39t-39 -44.5t-29 -50t-10 -53t13 -55.5q5 -10 1.5 -20t-13.5 -15t-20 -1t-15 13q-34 70 -7.5 144t111.5 146q45 38 105 73.5t119 60.5t117 41.5t99 16.5t65 -14q15 -10 19.5 -28.5t-3.5 -34.5q-1 -5 -5 -8
q-7 -9 -20.5 -25t-44.5 -60t-54.5 -87t-40.5 -98t-13 -100q5 -69 61 -110q33 -29 76.5 -39.5t86.5 1.5q46 12 93 47.5t85 79.5t76 101t63 102.5t48.5 94.5t31 66t11.5 28q4 9 13.5 13.5t19.5 1.5t15 -12t2 -19q-45 -190 -114 -403q-3 -7 3 -11t11 0q32 23 68 38
q10 3 19 -2.5t12 -15.5t-2 -19.5t-15 -12.5q-67 -33 -124 -81q-10 -8 -15 -19q-148 -412 -276 -486zM739 -25q95 54 212 350q3 7 -4 12t-13 -1q-116 -99 -195 -191t-80 -144q0 -25 32 -34q26 -7 48 8z" />
    <glyph glyph-name="Y" unicode="&#xdd;" horiz-adv-x="1126" 
d="M765 -70q-28 -17 -60 -18q-15 0 -29 5q-31 6 -50.5 30t-18.5 54q0 42 36 100t95 120t122.5 118.5t130.5 109.5q9 7 13 18l50 143q4 12 -7 18t-19 -4q-138 -200 -274 -236q-55 -15 -110.5 -2.5t-99.5 50.5q-35 26 -56 64.5t-24 82.5q-5 49 10 105t42 107t52 89t51 70
q16 18 14 29.5t-27 7.5q-209 -40 -380 -166q-25 -20 -45 -39t-39 -44.5t-29 -50t-10 -53t13 -55.5q5 -10 1.5 -20t-13.5 -15t-20 -1t-15 13q-34 70 -7.5 144t111.5 146q45 38 105 73.5t119 60.5t117 41.5t99 16.5t65 -14q15 -10 19.5 -28.5t-3.5 -34.5q-1 -5 -5 -8
q-7 -9 -20.5 -25t-44.5 -60t-54.5 -87t-40.5 -98t-13 -100q5 -69 61 -110q33 -29 76.5 -39.5t86.5 1.5q46 12 93 47.5t85 79.5t76 101t63 102.5t48.5 94.5t31 66t11.5 28q4 9 13.5 13.5t19.5 1.5t15 -12t2 -19q-45 -190 -114 -403q-3 -7 3 -11t11 0q32 23 68 38
q10 3 19 -2.5t12 -15.5t-2 -19.5t-15 -12.5q-67 -33 -124 -81q-10 -8 -15 -19q-148 -412 -276 -486zM739 -25q95 54 212 350q3 7 -4 12t-13 -1q-116 -99 -195 -191t-80 -144q0 -25 32 -34q26 -7 48 8z" />
    <glyph glyph-name="Z" unicode="Z" horiz-adv-x="982" 
d="M143 54q-31 -26 -44 -35t-22 -9q-11 0 -18 8q-7 7 -9 14t2.5 17t8.5 17t15 22q14 20 50.5 57.5t104 101t116.5 108.5t146 132q329 300 423 397q12 12 4.5 26.5t-24.5 12.5q-228 -29 -376 -78t-173 -105q-7 -17 -4 -35t16 -31q6 -9 4.5 -19.5t-10.5 -17t-20 -4.5t-17 11
q-21 25 -25.5 57t8.5 61q16 34 57.5 64.5t101 52.5t125 40t142 31t139 21.5t127.5 15.5q11 2 21 -3.5t15 -15.5q7 -15 -4 -36.5t-64 -78t-152 -149t-279 -256.5q-124 -112 -171 -155q-29 -27 1 -26q14 0 40 8q17 5 36 5t35.5 -2t38 -10t36.5 -14t39 -19t36.5 -20.5
l37.5 -22.5q9 -5 14 -8q29 -17 44 -25.5t40 -22t41 -19.5t36 -11t36.5 -4t31.5 8q10 4 20 0t14.5 -13.5t0.5 -20t-14 -14.5q-24 -11 -53 -11.5t-52.5 5t-58.5 21.5t-55 27.5t-58 34.5q-41 24 -63.5 36.5t-57 28.5t-62.5 20.5t-52 -1.5q-31 -6 -68 -25t-77 -48.5t-63.5 -48
t-57.5 -47.5z" />
    <glyph glyph-name="a" unicode="a" horiz-adv-x="808" 
d="M836 243q7 -8 6.5 -19t-8.5 -18q-9 -8 -23.5 -20.5t-52.5 -40.5t-77 -51t-92 -45.5t-102 -31.5t-103 -1.5t-99 36.5q-42 27 -67 70q-7 12 -21.5 13t-22.5 -11q-35 -54 -76.5 -91t-76.5 -38h-1q-18 1 -33.5 11.5t-22.5 27.5q-30 75 9 146q33 69 92.5 117.5t134.5 66.5
q15 4 25.5 -7t6 -25.5t-19.5 -18.5q-63 -15 -113 -55.5t-78 -99.5q-28 -48 -10 -100q6 -10 9 -10q17 -11 66 62t88 158q8 18 28 15q19 -3 22 -22q1 -5 2.5 -13.5t8.5 -31t16 -42.5t26 -42.5t37 -35.5q38 -25 85.5 -30t91 5t91.5 31.5t83 43.5t69 47t46.5 35.5t18.5 16.5
q8 7 19 6.5t18 -8.5z" />
    <glyph glyph-name="a" unicode="&#xe5;" horiz-adv-x="808" 
d="M836 243q7 -8 6.5 -19t-8.5 -18q-9 -8 -23.5 -20.5t-52.5 -40.5t-77 -51t-92 -45.5t-102 -31.5t-103 -1.5t-99 36.5q-42 27 -67 70q-7 12 -21.5 13t-22.5 -11q-35 -54 -76.5 -91t-76.5 -38h-1q-18 1 -33.5 11.5t-22.5 27.5q-30 75 9 146q33 69 92.5 117.5t134.5 66.5
q15 4 25.5 -7t6 -25.5t-19.5 -18.5q-63 -15 -113 -55.5t-78 -99.5q-28 -48 -10 -100q6 -10 9 -10q17 -11 66 62t88 158q8 18 28 15q19 -3 22 -22q1 -5 2.5 -13.5t8.5 -31t16 -42.5t26 -42.5t37 -35.5q38 -25 85.5 -30t91 5t91.5 31.5t83 43.5t69 47t46.5 35.5t18.5 16.5
q8 7 19 6.5t18 -8.5z" />
    <glyph glyph-name="a" unicode="&#xe4;" horiz-adv-x="808" 
d="M836 243q7 -8 6.5 -19t-8.5 -18q-9 -8 -23.5 -20.5t-52.5 -40.5t-77 -51t-92 -45.5t-102 -31.5t-103 -1.5t-99 36.5q-42 27 -67 70q-7 12 -21.5 13t-22.5 -11q-35 -54 -76.5 -91t-76.5 -38h-1q-18 1 -33.5 11.5t-22.5 27.5q-30 75 9 146q33 69 92.5 117.5t134.5 66.5
q15 4 25.5 -7t6 -25.5t-19.5 -18.5q-63 -15 -113 -55.5t-78 -99.5q-28 -48 -10 -100q6 -10 9 -10q17 -11 66 62t88 158q8 18 28 15q19 -3 22 -22q1 -5 2.5 -13.5t8.5 -31t16 -42.5t26 -42.5t37 -35.5q38 -25 85.5 -30t91 5t91.5 31.5t83 43.5t69 47t46.5 35.5t18.5 16.5
q8 7 19 6.5t18 -8.5z" />
    <glyph glyph-name="a" unicode="&#xe3;" horiz-adv-x="808" 
d="M836 243q7 -8 6.5 -19t-8.5 -18q-9 -8 -23.5 -20.5t-52.5 -40.5t-77 -51t-92 -45.5t-102 -31.5t-103 -1.5t-99 36.5q-42 27 -67 70q-7 12 -21.5 13t-22.5 -11q-35 -54 -76.5 -91t-76.5 -38h-1q-18 1 -33.5 11.5t-22.5 27.5q-30 75 9 146q33 69 92.5 117.5t134.5 66.5
q15 4 25.5 -7t6 -25.5t-19.5 -18.5q-63 -15 -113 -55.5t-78 -99.5q-28 -48 -10 -100q6 -10 9 -10q17 -11 66 62t88 158q8 18 28 15q19 -3 22 -22q1 -5 2.5 -13.5t8.5 -31t16 -42.5t26 -42.5t37 -35.5q38 -25 85.5 -30t91 5t91.5 31.5t83 43.5t69 47t46.5 35.5t18.5 16.5
q8 7 19 6.5t18 -8.5z" />
    <glyph glyph-name="a" unicode="&#xe2;" horiz-adv-x="808" 
d="M836 243q7 -8 6.5 -19t-8.5 -18q-9 -8 -23.5 -20.5t-52.5 -40.5t-77 -51t-92 -45.5t-102 -31.5t-103 -1.5t-99 36.5q-42 27 -67 70q-7 12 -21.5 13t-22.5 -11q-35 -54 -76.5 -91t-76.5 -38h-1q-18 1 -33.5 11.5t-22.5 27.5q-30 75 9 146q33 69 92.5 117.5t134.5 66.5
q15 4 25.5 -7t6 -25.5t-19.5 -18.5q-63 -15 -113 -55.5t-78 -99.5q-28 -48 -10 -100q6 -10 9 -10q17 -11 66 62t88 158q8 18 28 15q19 -3 22 -22q1 -5 2.5 -13.5t8.5 -31t16 -42.5t26 -42.5t37 -35.5q38 -25 85.5 -30t91 5t91.5 31.5t83 43.5t69 47t46.5 35.5t18.5 16.5
q8 7 19 6.5t18 -8.5z" />
    <glyph glyph-name="a" unicode="&#xe1;" horiz-adv-x="808" 
d="M836 243q7 -8 6.5 -19t-8.5 -18q-9 -8 -23.5 -20.5t-52.5 -40.5t-77 -51t-92 -45.5t-102 -31.5t-103 -1.5t-99 36.5q-42 27 -67 70q-7 12 -21.5 13t-22.5 -11q-35 -54 -76.5 -91t-76.5 -38h-1q-18 1 -33.5 11.5t-22.5 27.5q-30 75 9 146q33 69 92.5 117.5t134.5 66.5
q15 4 25.5 -7t6 -25.5t-19.5 -18.5q-63 -15 -113 -55.5t-78 -99.5q-28 -48 -10 -100q6 -10 9 -10q17 -11 66 62t88 158q8 18 28 15q19 -3 22 -22q1 -5 2.5 -13.5t8.5 -31t16 -42.5t26 -42.5t37 -35.5q38 -25 85.5 -30t91 5t91.5 31.5t83 43.5t69 47t46.5 35.5t18.5 16.5
q8 7 19 6.5t18 -8.5z" />
    <glyph glyph-name="a" unicode="&#xe0;" horiz-adv-x="808" 
d="M836 243q7 -8 6.5 -19t-8.5 -18q-9 -8 -23.5 -20.5t-52.5 -40.5t-77 -51t-92 -45.5t-102 -31.5t-103 -1.5t-99 36.5q-42 27 -67 70q-7 12 -21.5 13t-22.5 -11q-35 -54 -76.5 -91t-76.5 -38h-1q-18 1 -33.5 11.5t-22.5 27.5q-30 75 9 146q33 69 92.5 117.5t134.5 66.5
q15 4 25.5 -7t6 -25.5t-19.5 -18.5q-63 -15 -113 -55.5t-78 -99.5q-28 -48 -10 -100q6 -10 9 -10q17 -11 66 62t88 158q8 18 28 15q19 -3 22 -22q1 -5 2.5 -13.5t8.5 -31t16 -42.5t26 -42.5t37 -35.5q38 -25 85.5 -30t91 5t91.5 31.5t83 43.5t69 47t46.5 35.5t18.5 16.5
q8 7 19 6.5t18 -8.5z" />
    <glyph glyph-name="b" unicode="b" horiz-adv-x="723" 
d="M759.5 251q7.5 -8 7 -19t-8.5 -18q-52 -50 -116 -76.5t-129.5 -28.5t-128 10.5t-123.5 38.5q-15 6 -30 -1t-20 -23q-9 -34 -27 -64q-18 -34 -51 -55t-72 -22q-14 0 -27 2l-10 4q-85 46 -52 247q18 111 69 250.5t116.5 247t116.5 115.5q21 6 40.5 -3t28.5 -28
q19 -40 -15 -136t-93 -196.5t-120 -187t-95 -117.5l-2 -2q-5 -44 1 -88q5 -33 35.5 -45t56.5 8q17 14 29 34q20 34 26 73q4 33 -23 50q-15 10 -28 20q-12 9 -10 24.5t17 20.5q20 9 41.5 4t35.5 -22q10 -13 15 -29q58 -33 120.5 -52.5t131 -25t136 17t120.5 73.5q8 7 19 7
t18.5 -8zM282 807q-26 -4 -71.5 -75.5t-94 -186t-75.5 -224.5q-2 -7 4.5 -10t10.5 3q73 101 134 209q48 84 74.5 148.5t31.5 93.5t0 40q-1 3 -7 3q-4 0 -7 -1z" />
    <glyph glyph-name="c" unicode="c" horiz-adv-x="801" 
d="M843.5 250q7.5 -8 7 -19t-9.5 -18q-122 -102 -272 -157t-310 -56q-78 0 -155 14q-45 8 -76 23.5t-45.5 34.5t-20 35.5t-5.5 33.5q0 50 37.5 103.5t89 89.5t95.5 45q61 17 110 -21q41 -39 41 -96q-1 -11 -8.5 -18.5t-18.5 -7.5t-18.5 8t-7.5 19q1 32 -22 55q-31 20 -66 9
q-55 -10 -117.5 -72.5t-62.5 -113.5q1 -57 104 -76q64 -11 129.5 -12t120 6.5t108.5 21.5t96 31t81.5 37.5t66 36.5t49.5 33t31 23.5t11 9.5q8 7 19 6.5t18.5 -8.5z" />
    <glyph glyph-name="c" unicode="&#xe7;" horiz-adv-x="801" 
d="M843.5 250q7.5 -8 7 -19t-9.5 -18q-122 -102 -272 -157t-310 -56q-78 0 -155 14q-45 8 -76 23.5t-45.5 34.5t-20 35.5t-5.5 33.5q0 50 37.5 103.5t89 89.5t95.5 45q61 17 110 -21q41 -39 41 -96q-1 -11 -8.5 -18.5t-18.5 -7.5t-18.5 8t-7.5 19q1 32 -22 55q-31 20 -66 9
q-55 -10 -117.5 -72.5t-62.5 -113.5q1 -57 104 -76q64 -11 129.5 -12t120 6.5t108.5 21.5t96 31t81.5 37.5t66 36.5t49.5 33t31 23.5t11 9.5q8 7 19 6.5t18.5 -8.5z" />
    <glyph glyph-name="d" unicode="d" horiz-adv-x="910" 
d="M946.5 229q7.5 -8 7.5 -18.5t-8 -18.5q-46 -45 -103 -82t-112.5 -59.5t-113 -37t-103.5 -14t-83 9.5q-54 19 -93.5 59.5t-56.5 94.5q-3 9 -12.5 10t-14.5 -7q-120 -170 -199 -170q-5 0 -10 1q-24 3 -42.5 17.5t-26.5 37.5q-15 50 -0.5 108t40.5 90q71 82 140 62
q26 -8 45.5 -28.5t27.5 -47.5q1 -10 -5.5 -19t-16.5 -10q-11 -2 -19.5 4.5t-10.5 16.5q-11 26 -39 34q-35 8 -82 -46q-45 -67 -31 -146q6 -20 27 -21q22 -3 67.5 38t106.5 131q10 15 20 31q11 18 9 39q-4 65 2 130q9 104 40.5 204t81 169.5t103.5 76.5q30 5 46 -21
q21 -34 -6 -133.5t-80.5 -214t-116.5 -221.5q-13 -22 -8 -47q29 -140 130 -172q30 -7 68.5 -7.5t90 12.5t102 33t104.5 55t98 78q7 7 18 7t18.5 -8zM309 413q-2 -27 4 -27q4 0 10 11q149 264 163 391q1 11 -8 16t-17 -1q-50 -36 -95 -147t-57 -243z" />
    <glyph glyph-name="e" unicode="e" horiz-adv-x="801" 
d="M839 257.5q7 -8.5 6 -19.5t-10 -18q-15 -12 -37 -28t-85 -53.5t-125.5 -65.5t-150.5 -51t-168 -23q-102 -1 -196 37q-30 12 -50.5 28.5t-30.5 32t-14.5 33t-4 30.5t3.5 26q11 47 52 93t91.5 72t90.5 24q27 0 46.5 -19t21.5 -47q5 -48 -54 -87q-85 -53 -186 -47
q-5 1 -9 -2t-3 -8q-7 -51 66 -80q65 -27 140 -31.5t140 7.5t133 37t116.5 50.5t94 54t62 40.5t23.5 18q9 7 19.5 6t17.5 -9.5zM62 236q-13 -18 11 -16q42 3 107 36q10 6 17 10q31 21 29 38q-1 11 -5 14.5t-13 4.5q-32 2 -74.5 -23t-71.5 -64z" />
    <glyph glyph-name="e" unicode="&#xeb;" horiz-adv-x="801" 
d="M839 257.5q7 -8.5 6 -19.5t-10 -18q-15 -12 -37 -28t-85 -53.5t-125.5 -65.5t-150.5 -51t-168 -23q-102 -1 -196 37q-30 12 -50.5 28.5t-30.5 32t-14.5 33t-4 30.5t3.5 26q11 47 52 93t91.5 72t90.5 24q27 0 46.5 -19t21.5 -47q5 -48 -54 -87q-85 -53 -186 -47
q-5 1 -9 -2t-3 -8q-7 -51 66 -80q65 -27 140 -31.5t140 7.5t133 37t116.5 50.5t94 54t62 40.5t23.5 18q9 7 19.5 6t17.5 -9.5zM62 236q-13 -18 11 -16q42 3 107 36q10 6 17 10q31 21 29 38q-1 11 -5 14.5t-13 4.5q-32 2 -74.5 -23t-71.5 -64z" />
    <glyph glyph-name="e" unicode="&#xea;" horiz-adv-x="801" 
d="M839 257.5q7 -8.5 6 -19.5t-10 -18q-15 -12 -37 -28t-85 -53.5t-125.5 -65.5t-150.5 -51t-168 -23q-102 -1 -196 37q-30 12 -50.5 28.5t-30.5 32t-14.5 33t-4 30.5t3.5 26q11 47 52 93t91.5 72t90.5 24q27 0 46.5 -19t21.5 -47q5 -48 -54 -87q-85 -53 -186 -47
q-5 1 -9 -2t-3 -8q-7 -51 66 -80q65 -27 140 -31.5t140 7.5t133 37t116.5 50.5t94 54t62 40.5t23.5 18q9 7 19.5 6t17.5 -9.5zM62 236q-13 -18 11 -16q42 3 107 36q10 6 17 10q31 21 29 38q-1 11 -5 14.5t-13 4.5q-32 2 -74.5 -23t-71.5 -64z" />
    <glyph glyph-name="e" unicode="&#xe9;" horiz-adv-x="801" 
d="M839 257.5q7 -8.5 6 -19.5t-10 -18q-15 -12 -37 -28t-85 -53.5t-125.5 -65.5t-150.5 -51t-168 -23q-102 -1 -196 37q-30 12 -50.5 28.5t-30.5 32t-14.5 33t-4 30.5t3.5 26q11 47 52 93t91.5 72t90.5 24q27 0 46.5 -19t21.5 -47q5 -48 -54 -87q-85 -53 -186 -47
q-5 1 -9 -2t-3 -8q-7 -51 66 -80q65 -27 140 -31.5t140 7.5t133 37t116.5 50.5t94 54t62 40.5t23.5 18q9 7 19.5 6t17.5 -9.5zM62 236q-13 -18 11 -16q42 3 107 36q10 6 17 10q31 21 29 38q-1 11 -5 14.5t-13 4.5q-32 2 -74.5 -23t-71.5 -64z" />
    <glyph glyph-name="e" unicode="&#xe8;" horiz-adv-x="801" 
d="M839 257.5q7 -8.5 6 -19.5t-10 -18q-15 -12 -37 -28t-85 -53.5t-125.5 -65.5t-150.5 -51t-168 -23q-102 -1 -196 37q-30 12 -50.5 28.5t-30.5 32t-14.5 33t-4 30.5t3.5 26q11 47 52 93t91.5 72t90.5 24q27 0 46.5 -19t21.5 -47q5 -48 -54 -87q-85 -53 -186 -47
q-5 1 -9 -2t-3 -8q-7 -51 66 -80q65 -27 140 -31.5t140 7.5t133 37t116.5 50.5t94 54t62 40.5t23.5 18q9 7 19.5 6t17.5 -9.5zM62 236q-13 -18 11 -16q42 3 107 36q10 6 17 10q31 21 29 38q-1 11 -5 14.5t-13 4.5q-32 2 -74.5 -23t-71.5 -64z" />
    <glyph glyph-name="f" unicode="f" horiz-adv-x="620" 
d="M661.5 261q7.5 -8 7.5 -19t-8 -18q-107 -103 -361 -86q-122 9 -239 45q-12 4 -19 -1.5t-6 -18.5q2 -25 6 -61q6 -68 10 -118t7 -109.5t2.5 -102.5t-5 -86.5t-13.5 -72.5t-24 -50t-36 -29q-8 -3 -16 -3q-18 0 -31 12q-23 22 -28.5 92t4.5 164.5t28 194t41 192.5v4
q-3 39 0.5 52.5t15.5 19.5q1 7 6 13l2 2q82 285 166 332q25 15 53 7q27 -7 35 -34q6 -25 -11.5 -66.5t-52.5 -90t-65.5 -86t-64.5 -74.5q-11 -11 -9.5 -18t17.5 -13q49 -16 118.5 -28t152 -17t160 13t120.5 59q8 8 19 8t18.5 -8zM196 563q-22 -18 -81 -119q-44 -75 -29 -69
q4 2 14 13q27 27 55 69.5t43.5 75t9.5 35.5q-3 1 -5.5 0t-4.5 -3zM-31 -415q17 -2 28 102.5t10 211t-11 106.5q-8 0 -18.5 -65t-17 -143t-5 -144t13.5 -68z" />
    <glyph glyph-name="g" unicode="g" horiz-adv-x="659" 
d="M696 263q8 -7 8.5 -18t-7.5 -18q-68 -72 -166.5 -82.5t-180.5 44.5q-18 12 -34 -3q-59 -58 -110 -122q-5 -6 -6 -13q-27 -161 -81.5 -316.5t-102.5 -187.5q-14 -10 -30 -10q-21 0 -35 15q-33 35 -29 83q2 80 66 199.5t159 239.5q5 7 6 15q7 44 9 80q-64 -124 -126 -137
q-44 -8 -72 27q-13 14 -16 37.5t1.5 47t14.5 47.5q28 75 92 124t144 56q11 1 19.5 -6t9 -18t-6.5 -19.5t-18 -8.5q-65 -7 -116.5 -46.5t-74.5 -99.5q-20 -38 -10 -79q12 -13 23 -10q29 5 67 68t63 132q6 17 24 17t25 -16q10 -31 10 -64q0 -10 2 -18t6.5 -15t14 -3t23.5 19
q6 7 35 35q14 13 33.5 14t35.5 -11q66 -53 150.5 -47.5t143.5 67.5q7 8 18 8.5t19 -7.5zM30 -347q33 66 73.5 185.5t27.5 124.5q-10 4 -47.5 -62t-72.5 -149t-36 -118q-1 -40 12 -44q8 -2 14.5 8t22.5 43q4 7 6 12z" />
    <glyph glyph-name="h" unicode="h" horiz-adv-x="756" 
d="M789 240q7 -8 6.5 -19t-8.5 -18q-12 -11 -29 -24.5t-65 -46t-93.5 -55t-105 -37.5t-108.5 -8q-46 8 -84 34.5t-60 66.5q-17 31 -51 34q-13 1 -29 -5t-40.5 -21.5t-57.5 -51t-69 -88.5q-11 -16 -30 -9t-17 27q6 76 30 194q-10 15 1 30l7 10q26 128 61 249q26 95 52 165
t43.5 104.5t36 56.5t26 26t16.5 7q17 5 33 -0.5t27 -19.5q20 -24 21.5 -64.5t-11 -85.5t-37.5 -100t-52 -103t-60 -100t-56 -85t-45 -64l-2 -3l-6 -9q-14 -74 -16 -85q-1 -7 5.5 -10t11.5 2q87 91 161 85q29 -2 53.5 -18t38.5 -42q17 -30 45 -50t62 -25q42 -6 95.5 8.5
t94.5 36t85 51.5t58.5 42t24.5 20q8 7 19 6.5t18 -8.5zM236 811q-19 0 -66.5 -107.5t-82 -218.5t-22.5 -118q5 -3 20 17t34 54.5t40.5 78.5t40 89.5t31.5 87.5t16 71.5t-7 42.5q-3 3 -4 3z" />
    <glyph glyph-name="i" unicode="i" horiz-adv-x="614" 
d="M648 270.5q8 -7.5 8 -18.5t-7 -19q-12 -12 -31 -29.5t-69.5 -57t-100.5 -70t-118 -54.5t-128 -24q-92 -1 -165 54q-28 20 -40 53t-11 61t10 60t14.5 45t9.5 21q6 9 16 12t19.5 -2t13 -15t-1.5 -19q-2 -5 -6.5 -14.5t-12 -33.5t-9.5 -45t4.5 -44.5t24.5 -36.5
q44 -32 98 -39.5t103.5 4.5t102 37.5t92 52.5t76 57t51.5 44.5t20 19.5q8 8 18.5 8t18.5 -7.5zM9 349q-20 0 -25 20t13 30q28 14 50 37q8 8 18.5 8t18.5 -7.5t8.5 -18t-7.5 -18.5q-28 -29 -63 -47q-6 -4 -13 -4z" />
    <glyph glyph-name="i" unicode="&#xef;" horiz-adv-x="614" 
d="M648 270.5q8 -7.5 8 -18.5t-7 -19q-12 -12 -31 -29.5t-69.5 -57t-100.5 -70t-118 -54.5t-128 -24q-92 -1 -165 54q-28 20 -40 53t-11 61t10 60t14.5 45t9.5 21q6 9 16 12t19.5 -2t13 -15t-1.5 -19q-2 -5 -6.5 -14.5t-12 -33.5t-9.5 -45t4.5 -44.5t24.5 -36.5
q44 -32 98 -39.5t103.5 4.5t102 37.5t92 52.5t76 57t51.5 44.5t20 19.5q8 8 18.5 8t18.5 -7.5zM9 349q-20 0 -25 20t13 30q28 14 50 37q8 8 18.5 8t18.5 -7.5t8.5 -18t-7.5 -18.5q-28 -29 -63 -47q-6 -4 -13 -4z" />
    <glyph glyph-name="i" unicode="&#xee;" horiz-adv-x="614" 
d="M648 270.5q8 -7.5 8 -18.5t-7 -19q-12 -12 -31 -29.5t-69.5 -57t-100.5 -70t-118 -54.5t-128 -24q-92 -1 -165 54q-28 20 -40 53t-11 61t10 60t14.5 45t9.5 21q6 9 16 12t19.5 -2t13 -15t-1.5 -19q-2 -5 -6.5 -14.5t-12 -33.5t-9.5 -45t4.5 -44.5t24.5 -36.5
q44 -32 98 -39.5t103.5 4.5t102 37.5t92 52.5t76 57t51.5 44.5t20 19.5q8 8 18.5 8t18.5 -7.5zM9 349q-20 0 -25 20t13 30q28 14 50 37q8 8 18.5 8t18.5 -7.5t8.5 -18t-7.5 -18.5q-28 -29 -63 -47q-6 -4 -13 -4z" />
    <glyph glyph-name="i" unicode="&#xed;" horiz-adv-x="614" 
d="M648 270.5q8 -7.5 8 -18.5t-7 -19q-12 -12 -31 -29.5t-69.5 -57t-100.5 -70t-118 -54.5t-128 -24q-92 -1 -165 54q-28 20 -40 53t-11 61t10 60t14.5 45t9.5 21q6 9 16 12t19.5 -2t13 -15t-1.5 -19q-2 -5 -6.5 -14.5t-12 -33.5t-9.5 -45t4.5 -44.5t24.5 -36.5
q44 -32 98 -39.5t103.5 4.5t102 37.5t92 52.5t76 57t51.5 44.5t20 19.5q8 8 18.5 8t18.5 -7.5zM9 349q-20 0 -25 20t13 30q28 14 50 37q8 8 18.5 8t18.5 -7.5t8.5 -18t-7.5 -18.5q-28 -29 -63 -47q-6 -4 -13 -4z" />
    <glyph glyph-name="i" unicode="&#xec;" horiz-adv-x="614" 
d="M648 270.5q8 -7.5 8 -18.5t-7 -19q-12 -12 -31 -29.5t-69.5 -57t-100.5 -70t-118 -54.5t-128 -24q-92 -1 -165 54q-28 20 -40 53t-11 61t10 60t14.5 45t9.5 21q6 9 16 12t19.5 -2t13 -15t-1.5 -19q-2 -5 -6.5 -14.5t-12 -33.5t-9.5 -45t4.5 -44.5t24.5 -36.5
q44 -32 98 -39.5t103.5 4.5t102 37.5t92 52.5t76 57t51.5 44.5t20 19.5q8 8 18.5 8t18.5 -7.5zM9 349q-20 0 -25 20t13 30q28 14 50 37q8 8 18.5 8t18.5 -7.5t8.5 -18t-7.5 -18.5q-28 -29 -63 -47q-6 -4 -13 -4z" />
    <glyph glyph-name="j" unicode="j" horiz-adv-x="491" 
d="M-19 340q-21 0 -26 20t13 30q29 14 50 37q8 8 19 8t18.5 -7.5t8 -18.5t-7.5 -19q-27 -29 -63 -47q-6 -3 -12 -3zM528 269.5q8 -7.5 8.5 -18.5t-7.5 -19q-73 -71 -175 -77.5t-184 54.5q-6 4 -11 -1q-70 -68 -131 -145q-4 -5 -6 -12q-37 -177 -86.5 -323t-94.5 -172
q-12 -7 -25 -7q-19 1 -33 15q-33 35 -29 83q2 78 63.5 194.5t154.5 235.5q7 9 10 21q24 90 24 183q-2 10 3.5 19t16 12t20 -3t11.5 -16q2 -49 -8 -97q-1 -7 5.5 -10t11.5 2q39 42 72 73q10 9 22.5 9.5t23.5 -6.5q49 -37 98.5 -49.5t83 -7.5t65.5 20.5t43 25t17 15.5
q7 8 18 8.5t19 -7zM-182 -397q23 17 59 117.5t71 233.5q-63 -92 -101.5 -174t-39.5 -135q-3 -23 11 -42z" />
    <glyph glyph-name="k" unicode="k" horiz-adv-x="788" 
d="M826.5 237.5q7.5 -7.5 7 -18.5t-8.5 -19q-65 -62 -162.5 -105t-191.5 -59t-177 -14.5t-130 21.5q-59 23 -60 68q-1 3 -8 -2q-49 -47 -87 -104q-12 -16 -31 -9t-17 27q10 103 19.5 187.5t24.5 181.5t33.5 171t42 139t54.5 103.5t68 47.5q20 8 41.5 2.5t35.5 -22.5
q11 -16 12 -42.5t-6.5 -59t-22 -73.5t-32.5 -81t-40.5 -85t-43 -82.5t-43 -77t-38 -65t-30.5 -49.5l-0.5 -1t-1.5 -1q-4 -33 -8 -68q-1 -10 8 -14.5t16 3.5q81 81 161 117t110 26q20 -8 20 -29q-1 -25 -49 -36q-50 -24 -82 -46t-42.5 -35t-10.5 -21q0 -11 27 -22
q42 -17 118 -17.5t162.5 14t176 54t148.5 96.5q8 8 19 7.5t18.5 -8zM215 802q-90 -22 -152 -387q-2 -10 8 -13.5t15 5.5q87 156 127.5 264.5t24.5 130.5q-2 2 -8 2q-8 0 -15 -2z" />
    <glyph glyph-name="l" unicode="l" horiz-adv-x="659" 
d="M688 256.5q8 -7.5 8 -18.5t-8 -19q-13 -12 -30.5 -28t-68 -55t-99 -68t-114 -52.5t-122.5 -23.5q-37 0 -72 10q-65 19 -108.5 78.5t-63.5 153.5q-2 5 -2 10q-9 49 -12 99q-6 108 12 228t57 213t88 114q21 9 44 3t37 -24q21 -22 23.5 -66t-11 -101t-32 -116t-46.5 -124
t-48.5 -110t-41.5 -88q-16 -33 -6 -67q37 -126 125 -153q28 -12 64.5 -7.5t68 11t68 24.5t65 33.5t60 38t51.5 38.5t40 33.5t26.5 23.5t10.5 10q8 7 18.5 7t18.5 -7.5zM52 358q1 -7 7 -9.5t10 3.5q27 43 64.5 152.5t59 213.5t3.5 123q-9 10 -17 10q-3 0 -6 -1
q-25 -11 -60 -96.5t-55.5 -201.5t-5.5 -194z" />
    <glyph glyph-name="m" unicode="m" horiz-adv-x="1053" 
d="M1097.5 254q8.5 -7 9.5 -17.5t-5 -19.5q-8 -10 -22.5 -26t-52.5 -50t-78 -61t-96.5 -48t-109.5 -21q-75 0 -139 38q-56 36 -80 97q-15 32 -24 40.5t-26 5.5q-20 -3 -68.5 -49.5t-77.5 -95.5q-11 -18 -30.5 -12t-18.5 27q3 60 -16.5 101t-42.5 44q-13 2 -29.5 -3
t-43.5 -21.5t-67 -56t-87 -99.5q-13 -16 -32 -7t-14 29l48 211q2 11 11.5 17t20 3.5t16.5 -12t3 -19.5q-19 -82 -19 -86q-1 -5 3.5 -7t8.5 3q41 40 75 63.5t59 29.5t39 6t32 -4q31 -14 52.5 -41t26.5 -61q1 -5 6.5 -6.5t8.5 2.5q34 38 69 65t59 31q22 3 39.5 -1.5
t30.5 -18.5t19.5 -24.5t15.5 -29.5q18 -47 59 -75q42 -25 88.5 -29t86 6.5t80.5 33t69.5 44.5t55.5 48t36.5 36t14.5 16q6 9 17 10t19.5 -6z" />
    <glyph glyph-name="n" unicode="n" horiz-adv-x="833" 
d="M874 249q8 -7 8.5 -18t-7.5 -19q-6 -7 -17 -18t-41 -36t-61 -47t-75.5 -44.5t-87.5 -35t-93.5 -11.5t-95.5 19q-78 39 -121 115q0 1 -4.5 8t-8 11.5t-9 10.5t-12 9t-13.5 2q-80 -2 -226 -173q-13 -15 -31.5 -6t-13.5 29l50 220q2 10 11.5 16t20 3.5t16 -12t3.5 -19.5
l-23 -99q-1 -5 4 -7.5t9 1.5q111 105 187 100q32 -2 54 -26q17 -18 30 -39q34 -62 96 -95q31 -13 65 -15t64.5 3.5t62.5 18t58.5 27.5t53 33t44.5 33t35 30t22.5 21t8.5 9q7 8 18 8t19 -7z" />
    <glyph glyph-name="n" unicode="&#xf1;" horiz-adv-x="833" 
d="M874 249q8 -7 8.5 -18t-7.5 -19q-6 -7 -17 -18t-41 -36t-61 -47t-75.5 -44.5t-87.5 -35t-93.5 -11.5t-95.5 19q-78 39 -121 115q0 1 -4.5 8t-8 11.5t-9 10.5t-12 9t-13.5 2q-80 -2 -226 -173q-13 -15 -31.5 -6t-13.5 29l50 220q2 10 11.5 16t20 3.5t16 -12t3.5 -19.5
l-23 -99q-1 -5 4 -7.5t9 1.5q111 105 187 100q32 -2 54 -26q17 -18 30 -39q34 -62 96 -95q31 -13 65 -15t64.5 3.5t62.5 18t58.5 27.5t53 33t44.5 33t35 30t22.5 21t8.5 9q7 8 18 8t19 -7z" />
    <glyph glyph-name="o" unicode="o" horiz-adv-x="691" 
d="M730 284q8 -8 8 -19t-8 -18q-61 -61 -135.5 -100.5t-145.5 -54.5t-134.5 -14.5t-113.5 15.5q-7 2 -11 -5q-13 -30 -39.5 -48t-59.5 -19q-33 0 -61 16q-38 18 -54 56t-3 78q13 52 55 95t79 43h1q11 0 18.5 -8t7.5 -18.5t-8 -18t-19 -7.5q-16 0 -45 -31.5t-39 -67.5
q-8 -22 1 -43.5t30 -30.5q18 -14 40 -11.5t36 19.5q20 22 8 31q-28 18 -35 51t11 61q39 66 78 43q19 -11 25 -44t-1 -69q-2 -9 4 -17.5t15 -10.5q126 -21 247 18t211 129q7 8 18 8t19 -8zM164 171q4 24 2 49q-4 -7 -7 -11q-6 -9 -5 -20t10 -18z" />
    <glyph glyph-name="o" unicode="&#xf8;" horiz-adv-x="691" 
d="M730 284q8 -8 8 -19t-8 -18q-61 -61 -135.5 -100.5t-145.5 -54.5t-134.5 -14.5t-113.5 15.5q-7 2 -11 -5q-13 -30 -39.5 -48t-59.5 -19q-33 0 -61 16q-38 18 -54 56t-3 78q13 52 55 95t79 43h1q11 0 18.5 -8t7.5 -18.5t-8 -18t-19 -7.5q-16 0 -45 -31.5t-39 -67.5
q-8 -22 1 -43.5t30 -30.5q18 -14 40 -11.5t36 19.5q20 22 8 31q-28 18 -35 51t11 61q39 66 78 43q19 -11 25 -44t-1 -69q-2 -9 4 -17.5t15 -10.5q126 -21 247 18t211 129q7 8 18 8t19 -8zM164 171q4 24 2 49q-4 -7 -7 -11q-6 -9 -5 -20t10 -18z" />
    <glyph glyph-name="o" unicode="&#xf6;" horiz-adv-x="691" 
d="M730 284q8 -8 8 -19t-8 -18q-61 -61 -135.5 -100.5t-145.5 -54.5t-134.5 -14.5t-113.5 15.5q-7 2 -11 -5q-13 -30 -39.5 -48t-59.5 -19q-33 0 -61 16q-38 18 -54 56t-3 78q13 52 55 95t79 43h1q11 0 18.5 -8t7.5 -18.5t-8 -18t-19 -7.5q-16 0 -45 -31.5t-39 -67.5
q-8 -22 1 -43.5t30 -30.5q18 -14 40 -11.5t36 19.5q20 22 8 31q-28 18 -35 51t11 61q39 66 78 43q19 -11 25 -44t-1 -69q-2 -9 4 -17.5t15 -10.5q126 -21 247 18t211 129q7 8 18 8t19 -8zM164 171q4 24 2 49q-4 -7 -7 -11q-6 -9 -5 -20t10 -18z" />
    <glyph glyph-name="o" unicode="&#xf5;" horiz-adv-x="691" 
d="M730 284q8 -8 8 -19t-8 -18q-61 -61 -135.5 -100.5t-145.5 -54.5t-134.5 -14.5t-113.5 15.5q-7 2 -11 -5q-13 -30 -39.5 -48t-59.5 -19q-33 0 -61 16q-38 18 -54 56t-3 78q13 52 55 95t79 43h1q11 0 18.5 -8t7.5 -18.5t-8 -18t-19 -7.5q-16 0 -45 -31.5t-39 -67.5
q-8 -22 1 -43.5t30 -30.5q18 -14 40 -11.5t36 19.5q20 22 8 31q-28 18 -35 51t11 61q39 66 78 43q19 -11 25 -44t-1 -69q-2 -9 4 -17.5t15 -10.5q126 -21 247 18t211 129q7 8 18 8t19 -8zM164 171q4 24 2 49q-4 -7 -7 -11q-6 -9 -5 -20t10 -18z" />
    <glyph glyph-name="o" unicode="&#xf4;" horiz-adv-x="691" 
d="M730 284q8 -8 8 -19t-8 -18q-61 -61 -135.5 -100.5t-145.5 -54.5t-134.5 -14.5t-113.5 15.5q-7 2 -11 -5q-13 -30 -39.5 -48t-59.5 -19q-33 0 -61 16q-38 18 -54 56t-3 78q13 52 55 95t79 43h1q11 0 18.5 -8t7.5 -18.5t-8 -18t-19 -7.5q-16 0 -45 -31.5t-39 -67.5
q-8 -22 1 -43.5t30 -30.5q18 -14 40 -11.5t36 19.5q20 22 8 31q-28 18 -35 51t11 61q39 66 78 43q19 -11 25 -44t-1 -69q-2 -9 4 -17.5t15 -10.5q126 -21 247 18t211 129q7 8 18 8t19 -8zM164 171q4 24 2 49q-4 -7 -7 -11q-6 -9 -5 -20t10 -18z" />
    <glyph glyph-name="o" unicode="&#xf3;" horiz-adv-x="691" 
d="M730 284q8 -8 8 -19t-8 -18q-61 -61 -135.5 -100.5t-145.5 -54.5t-134.5 -14.5t-113.5 15.5q-7 2 -11 -5q-13 -30 -39.5 -48t-59.5 -19q-33 0 -61 16q-38 18 -54 56t-3 78q13 52 55 95t79 43h1q11 0 18.5 -8t7.5 -18.5t-8 -18t-19 -7.5q-16 0 -45 -31.5t-39 -67.5
q-8 -22 1 -43.5t30 -30.5q18 -14 40 -11.5t36 19.5q20 22 8 31q-28 18 -35 51t11 61q39 66 78 43q19 -11 25 -44t-1 -69q-2 -9 4 -17.5t15 -10.5q126 -21 247 18t211 129q7 8 18 8t19 -8zM164 171q4 24 2 49q-4 -7 -7 -11q-6 -9 -5 -20t10 -18z" />
    <glyph glyph-name="o" unicode="&#xf2;" horiz-adv-x="691" 
d="M730 284q8 -8 8 -19t-8 -18q-61 -61 -135.5 -100.5t-145.5 -54.5t-134.5 -14.5t-113.5 15.5q-7 2 -11 -5q-13 -30 -39.5 -48t-59.5 -19q-33 0 -61 16q-38 18 -54 56t-3 78q13 52 55 95t79 43h1q11 0 18.5 -8t7.5 -18.5t-8 -18t-19 -7.5q-16 0 -45 -31.5t-39 -67.5
q-8 -22 1 -43.5t30 -30.5q18 -14 40 -11.5t36 19.5q20 22 8 31q-28 18 -35 51t11 61q39 66 78 43q19 -11 25 -44t-1 -69q-2 -9 4 -17.5t15 -10.5q126 -21 247 18t211 129q7 8 18 8t19 -8zM164 171q4 24 2 49q-4 -7 -7 -11q-6 -9 -5 -20t10 -18z" />
    <glyph glyph-name="p" unicode="p" horiz-adv-x="788" 
d="M824.5 261q7.5 -8 7.5 -18.5t-8 -18.5q-36 -33 -81 -60.5t-87 -45.5t-97.5 -32.5t-95 -22t-97 -13.5t-87 -8t-80.5 -5q-47 -3 -66 -4q-10 -2 -20 -2q-11 0 -18.5 7t-8.5 18q-1 10 6 18t18 9q8 1 17 2q36 5 64 29t38 59q7 42 -45 63q-20 8 -54 -23q-71 -75 -114 -168
q-1 -2 -1 -5q-83 -478 -154 -504q-6 -2 -13 -2q-16 0 -28 11q-23 24 -4 111t59.5 194.5t87.5 204.5q21 118 39 242q1 16 15.5 22t26.5 -4t10 -25q-6 -41 -13 -86q-1 -5 2.5 -6t6.5 3q83 112 153 84q40 -12 62 -46.5t15 -74.5q-6 -32 -25 -58q-3 -4 -1 -8.5t6 -4.5
q74 5 134.5 13.5t136 26t142 50.5t115.5 79q8 8 18.5 7.5t18 -8.5zM-138 -380q31 86 49 175q-31 -86 -49 -175z" />
    <glyph glyph-name="q" unicode="q" horiz-adv-x="626" 
d="M663 262.5q8 -7.5 8 -18t-7 -18.5q-6 -6 -18 -16.5t-47 -30.5t-72 -30t-90.5 -4.5t-105.5 35.5q-15 9 -33 6.5t-30 -15.5q-51 -52 -91 -111q-3 -5 -5 -10q-20 -84 -63.5 -199t-122.5 -301q-6 -16 -24 -16q-4 0 -8 1q-10 4 -15 13t-2 19q46 186 86 300t98 205q3 5 5 11
q8 39 11 79q0 6 -4 6t-7 -5q-63 -119 -123 -131q-44 -8 -72 27q-22 26 -13 59q12 58 77.5 137t127.5 108q10 5 20 1.5t14.5 -13.5t1 -20t-13.5 -15q-118 -71 -172 -198q-6 -12 -3 -24q11 -13 22 -10q29 5 67 68t63 132q6 17 25 17q17 0 24 -17q10 -24 15 -50q2 -19 20.5 -25
t32.5 7q10 10 21 20q15 14 35.5 15.5t37.5 -10.5q67 -51 150.5 -45t142.5 66q7 8 18 8t19 -7.5z" />
    <glyph glyph-name="r" unicode="r" horiz-adv-x="820" 
d="M862.5 263q7.5 -8 7.5 -18.5t-8 -18.5q-97 -94 -239 -144.5t-260 -50.5q-57 -3 -110 21q-23 13 -37 29t-18 34.5t-4.5 33.5t6.5 34.5t11.5 30t12.5 26.5q3 6 -5 7q-4 0 -11 -4q-55 -30 -118 -27q-28 -1 -55 11q-10 -3 -20 2q-16 8 -14 26q-15 18 -21 41q-12 41 2 81
t49 66q42 25 66 2q33 -31 -22 -155q-2 -5 3 -13.5t12 -8.5q58 0 109 29q15 9 24 12.5t24 3t28 -10.5t14 -26t-3.5 -27.5t-14.5 -31.5q-25 -46 -24.5 -73.5t33.5 -46.5q20 -12 65 -14t106 8t126 30t132 57.5t116 85.5q8 7 19 7t18.5 -8zM29 318q18 38 28 79q-37 -32 -28 -79z
" />
    <glyph glyph-name="s" unicode="s" horiz-adv-x="646" 
d="M686.5 277.5q7.5 -7.5 7.5 -18.5t-7 -19q-87 -87 -226 -151t-260 -64q-26 0 -50 3q-50 4 -92 30.5t-67 69.5q-5 9 -2.5 19t11.5 16t19.5 3.5t16.5 -11.5q33 -44 86.5 -55.5t101.5 15.5q21 12 25.5 35.5t-12.5 41.5t-38 31q-42 25 -70 64q-4 7 -12 8t-13 -4l-76 -72
q-11 -10 -26 -6t-18.5 19t8.5 26l153 144q26 31 59 55q8 6 18.5 5t17.5 -9t6 -18.5t-8 -17.5l-55 -51q-13 -15 -14 -35q0 -16 15.5 -30.5t44.5 -34.5q31 -18 53 -46q17 -24 19.5 -53.5t-11.5 -55.5q-4 -8 1.5 -15t14.5 -5q196 47 343 186q7 8 18 8t18.5 -7.5z" />
    <glyph glyph-name="s" unicode="&#xdf;" horiz-adv-x="646" 
d="M686.5 277.5q7.5 -7.5 7.5 -18.5t-7 -19q-87 -87 -226 -151t-260 -64q-26 0 -50 3q-50 4 -92 30.5t-67 69.5q-5 9 -2.5 19t11.5 16t19.5 3.5t16.5 -11.5q33 -44 86.5 -55.5t101.5 15.5q21 12 25.5 35.5t-12.5 41.5t-38 31q-42 25 -70 64q-4 7 -12 8t-13 -4l-76 -72
q-11 -10 -26 -6t-18.5 19t8.5 26l153 144q26 31 59 55q8 6 18.5 5t17.5 -9t6 -18.5t-8 -17.5l-55 -51q-13 -15 -14 -35q0 -16 15.5 -30.5t44.5 -34.5q31 -18 53 -46q17 -24 19.5 -53.5t-11.5 -55.5q-4 -8 1.5 -15t14.5 -5q196 47 343 186q7 8 18 8t18.5 -7.5z" />
    <glyph glyph-name="t" unicode="t" horiz-adv-x="639" 
d="M687 272.5q8 -7.5 8 -18.5t-8 -19q-11 -12 -29.5 -29.5t-68 -56.5t-98 -69t-113 -54.5t-120.5 -24.5q-41 0 -81 15q-90 34 -133 151t-32 296q-1 8 -7 13t-14 4q-42 -3 -86 -6.5t-76 -6t-58.5 -4t-40.5 -2.5t-15 -1h-2q-11 -1 -19 6.5t-8 18.5t7 19t18 8q1 0 16 1t42.5 3
t61 4.5t79.5 6t90 6.5q18 2 22 28q9 62 23.5 121t33.5 113t43.5 89t50.5 40q40 7 63 -40q15 -30 -3 -118.5t-58 -200.5q-3 -8 -1.5 -12.5t3.5 -6t5 -1.5q229 14 330 14q11 0 18.5 -8t7.5 -18.5t-7.5 -18.5t-18.5 -8q-156 0 -348 -15q-9 0 -12.5 -2t-6.5 -9q-25 -73 -75 -199
q25 -177 126 -216q29 -11 63 -11t66.5 9t68 25t65.5 34t60.5 40t52 39.5t41 35.5t27 25t10.5 10q7 8 18 8t19 -7.5zM75 562q-4 -23 7 -23q8 0 16 1q15 1 18 17q91 266 73 303q-2 6 -8 7.5t-10 -2.5q-23 -25 -52 -110.5t-44 -192.5zM62 406q9 0 22.5 37t7.5 44q-14 7 -26 -2
q-5 -5 -7.5 -24.5t-1.5 -37t5 -17.5z" />
    <glyph glyph-name="u" unicode="u" horiz-adv-x="827" 
d="M868 281.5q8 -7.5 8 -18.5t-7 -19q-54 -56 -130.5 -111.5t-173.5 -97t-175 -41.5h-2q-87 -3 -146 60q-25 28 -30 65q-2 14 -15.5 18t-23.5 -6q-119 -124 -187 -83q-24 14 -28.5 45.5t8.5 70.5t26.5 68t29.5 58q6 9 16 11.5t19 -2.5t12 -15t-1 -20q-24 -41 -39.5 -81
t-18 -61.5t2.5 -28.5q25 -15 93.5 48t128.5 151q6 9 15.5 11t18.5 -2.5t12.5 -13.5t0.5 -18q-8 -23 -14.5 -53.5t-5 -69.5t17.5 -57q45 -45 108 -43h2q70 0 159.5 40t161 91.5t119.5 102.5q8 8 19 8.5t19 -7z" />
    <glyph glyph-name="u" unicode="&#xfc;" horiz-adv-x="827" 
d="M868 281.5q8 -7.5 8 -18.5t-7 -19q-54 -56 -130.5 -111.5t-173.5 -97t-175 -41.5h-2q-87 -3 -146 60q-25 28 -30 65q-2 14 -15.5 18t-23.5 -6q-119 -124 -187 -83q-24 14 -28.5 45.5t8.5 70.5t26.5 68t29.5 58q6 9 16 11.5t19 -2.5t12 -15t-1 -20q-24 -41 -39.5 -81
t-18 -61.5t2.5 -28.5q25 -15 93.5 48t128.5 151q6 9 15.5 11t18.5 -2.5t12.5 -13.5t0.5 -18q-8 -23 -14.5 -53.5t-5 -69.5t17.5 -57q45 -45 108 -43h2q70 0 159.5 40t161 91.5t119.5 102.5q8 8 19 8.5t19 -7z" />
    <glyph glyph-name="u" unicode="&#xfb;" horiz-adv-x="827" 
d="M868 281.5q8 -7.5 8 -18.5t-7 -19q-54 -56 -130.5 -111.5t-173.5 -97t-175 -41.5h-2q-87 -3 -146 60q-25 28 -30 65q-2 14 -15.5 18t-23.5 -6q-119 -124 -187 -83q-24 14 -28.5 45.5t8.5 70.5t26.5 68t29.5 58q6 9 16 11.5t19 -2.5t12 -15t-1 -20q-24 -41 -39.5 -81
t-18 -61.5t2.5 -28.5q25 -15 93.5 48t128.5 151q6 9 15.5 11t18.5 -2.5t12.5 -13.5t0.5 -18q-8 -23 -14.5 -53.5t-5 -69.5t17.5 -57q45 -45 108 -43h2q70 0 159.5 40t161 91.5t119.5 102.5q8 8 19 8.5t19 -7z" />
    <glyph glyph-name="u" unicode="&#xfa;" horiz-adv-x="827" 
d="M868 281.5q8 -7.5 8 -18.5t-7 -19q-54 -56 -130.5 -111.5t-173.5 -97t-175 -41.5h-2q-87 -3 -146 60q-25 28 -30 65q-2 14 -15.5 18t-23.5 -6q-119 -124 -187 -83q-24 14 -28.5 45.5t8.5 70.5t26.5 68t29.5 58q6 9 16 11.5t19 -2.5t12 -15t-1 -20q-24 -41 -39.5 -81
t-18 -61.5t2.5 -28.5q25 -15 93.5 48t128.5 151q6 9 15.5 11t18.5 -2.5t12.5 -13.5t0.5 -18q-8 -23 -14.5 -53.5t-5 -69.5t17.5 -57q45 -45 108 -43h2q70 0 159.5 40t161 91.5t119.5 102.5q8 8 19 8.5t19 -7z" />
    <glyph glyph-name="u" unicode="&#xf9;" horiz-adv-x="827" 
d="M868 281.5q8 -7.5 8 -18.5t-7 -19q-54 -56 -130.5 -111.5t-173.5 -97t-175 -41.5h-2q-87 -3 -146 60q-25 28 -30 65q-2 14 -15.5 18t-23.5 -6q-119 -124 -187 -83q-24 14 -28.5 45.5t8.5 70.5t26.5 68t29.5 58q6 9 16 11.5t19 -2.5t12 -15t-1 -20q-24 -41 -39.5 -81
t-18 -61.5t2.5 -28.5q25 -15 93.5 48t128.5 151q6 9 15.5 11t18.5 -2.5t12.5 -13.5t0.5 -18q-8 -23 -14.5 -53.5t-5 -69.5t17.5 -57q45 -45 108 -43h2q70 0 159.5 40t161 91.5t119.5 102.5q8 8 19 8.5t19 -7z" />
    <glyph glyph-name="v" unicode="v" horiz-adv-x="840" 
d="M885.5 254q7.5 -8 7.5 -19t-7 -19q-74 -74 -197 -129.5t-236 -52.5q-93 -2 -165 56q-6 7 -15.5 6.5t-15.5 -7.5q-32 -41 -75 -70q-27 -18 -60 -19q-25 0 -47 14l-3 3q-23 21 -38.5 55.5t-21 65.5t-7.5 65.5t-1 48.5t2 23q1 11 9.5 17.5t19 5.5t17.5 -9.5t6 -18.5
q-5 -50 4.5 -115t42.5 -98q29 -15 74 25q33 30 57 68q2 5 0 10q-19 39 -22 78t14 66q13 19 35 24t42 -6q14 -6 22.5 -18.5t8.5 -27.5q-2 -62 -34 -116q-1 -5 0 -10q3 -2 5 -5q61 -62 147 -58q99 -2 213 48.5t181 118.5q8 8 19 8t18.5 -8zM273 224q11 24 10 50q-2 4 -6 4
t-6 -3q-10 -25 -2 -51q1 -1 2.5 -1t1.5 1z" />
    <glyph glyph-name="w" unicode="w" horiz-adv-x="950" 
d="M987 265q7 -8 6.5 -19t-8.5 -18q-109 -93 -249 -126t-280 0q-30 8 -60 20q-15 8 -24 -5q-6 -6 -12.5 -15.5t-8.5 -12.5q-85 -100 -150 -65q-10 5 -17 14q-12 11 -28.5 11.5t-28.5 -10.5q-14 -12 -31 -19q-15 -7 -31 -7q-18 0 -34 8q-32 15 -43 50q-7 18 -7.5 41.5t4.5 47
t10.5 44.5t13.5 41.5t12 29.5t8 16q5 10 15 13.5t20 -1t13.5 -15t-1.5 -20.5q-19 -39 -34.5 -94t-4.5 -86q4 -14 17 -20q11 -5 22 0q27 12 57 61t48 97q4 10 13.5 14.5t20 1t15 -13.5t0.5 -20q-8 -26 -13 -54.5t-3.5 -53t12.5 -29.5q13 -8 38 9q30 21 51 49q20 24 3 49
q-10 14 -13 32q-6 56 84 100q12 8 26 5.5t22 -12.5q19 -25 -8 -88q-8 -18 0.5 -35.5t27.5 -22.5q6 -2 12 -3q126 -32 253.5 -2t227.5 114q8 8 19 7.5t18 -8.5zM365 203q11 22 20 45q-29 -19 -27 -32q1 -8 7 -13z" />
    <glyph glyph-name="x" unicode="x" horiz-adv-x="911" 
d="M952.5 275.5q7.5 -7.5 7.5 -18.5t-7 -19q-104 -104 -228.5 -161t-246.5 -57q-75 0 -145 23q-91 35 -167 95q-10 8 -23 8t-23 -8q-70 -56 -125 -107q-8 -8 -19 -7.5t-18 8.5t-7 19t8 18q48 45 108 94q14 11 14.5 28t-12.5 29q-46 43 -79 78q-11 11 -6.5 26t20 18t25.5 -9
q35 -39 92 -89q10 -9 23.5 -10t24.5 7q53 39 88 63q9 6 20 3.5t17 -11.5t3.5 -19.5t-11.5 -16.5q-15 -10 -58 -40q-16 -12 -16 -31.5t16 -30.5q56 -41 122 -66q131 -44 285 6t280 177q8 8 19 8t18.5 -7.5z" />
    <glyph glyph-name="y" unicode="y" horiz-adv-x="743" 
d="M791.5 275.5q7.5 -7.5 7.5 -18.5t-7 -18q-67 -63 -157.5 -75.5t-171.5 29.5q-17 9 -35.5 6.5t-32.5 -16.5q-47 -48 -94 -107q-5 -5 -6 -12q-27 -162 -81.5 -317.5t-102.5 -186.5q-14 -10 -30 -10q-21 0 -35 15q-33 35 -29 83q2 80 66 199.5t160 240.5q4 6 5 13q6 29 7 58
q-24 -48 -66 -82.5t-95 -49.5q-23 -7 -46.5 -0.5t-39.5 24.5q-56 63 11 230q4 10 14.5 14.5t20.5 0.5t14 -14t0 -20q-23 -58 -29 -100t-2 -55.5t10 -21.5q15 -14 34 -7q39 10 70.5 36.5t48 53t29.5 59t16 45t4 20.5q4 20 23.5 22t27.5 -17q10 -30 10 -61q1 -18 17.5 -24.5
t29.5 6.5q26 27 51 50q16 14 33 1q50 -36 100.5 -48.5t84.5 -7.5t66.5 21t44 25.5t17.5 15.5q8 8 19 8t18.5 -7.5zM220 -46q2 6 -1.5 7t-6.5 -4q-63 -93 -102 -175.5t-40 -134.5q-1 -42 12 -44q7 -1 15.5 12t27.5 51q63 139 95 288z" />
    <glyph glyph-name="y" unicode="&#xff;" horiz-adv-x="743" 
d="M791.5 275.5q7.5 -7.5 7.5 -18.5t-7 -18q-67 -63 -157.5 -75.5t-171.5 29.5q-17 9 -35.5 6.5t-32.5 -16.5q-47 -48 -94 -107q-5 -5 -6 -12q-27 -162 -81.5 -317.5t-102.5 -186.5q-14 -10 -30 -10q-21 0 -35 15q-33 35 -29 83q2 80 66 199.5t160 240.5q4 6 5 13q6 29 7 58
q-24 -48 -66 -82.5t-95 -49.5q-23 -7 -46.5 -0.5t-39.5 24.5q-56 63 11 230q4 10 14.5 14.5t20.5 0.5t14 -14t0 -20q-23 -58 -29 -100t-2 -55.5t10 -21.5q15 -14 34 -7q39 10 70.5 36.5t48 53t29.5 59t16 45t4 20.5q4 20 23.5 22t27.5 -17q10 -30 10 -61q1 -18 17.5 -24.5
t29.5 6.5q26 27 51 50q16 14 33 1q50 -36 100.5 -48.5t84.5 -7.5t66.5 21t44 25.5t17.5 15.5q8 8 19 8t18.5 -7.5zM220 -46q2 6 -1.5 7t-6.5 -4q-63 -93 -102 -175.5t-40 -134.5q-1 -42 12 -44q7 -1 15.5 12t27.5 51q63 139 95 288z" />
    <glyph glyph-name="y" unicode="&#xfd;" horiz-adv-x="743" 
d="M791.5 275.5q7.5 -7.5 7.5 -18.5t-7 -18q-67 -63 -157.5 -75.5t-171.5 29.5q-17 9 -35.5 6.5t-32.5 -16.5q-47 -48 -94 -107q-5 -5 -6 -12q-27 -162 -81.5 -317.5t-102.5 -186.5q-14 -10 -30 -10q-21 0 -35 15q-33 35 -29 83q2 80 66 199.5t160 240.5q4 6 5 13q6 29 7 58
q-24 -48 -66 -82.5t-95 -49.5q-23 -7 -46.5 -0.5t-39.5 24.5q-56 63 11 230q4 10 14.5 14.5t20.5 0.5t14 -14t0 -20q-23 -58 -29 -100t-2 -55.5t10 -21.5q15 -14 34 -7q39 10 70.5 36.5t48 53t29.5 59t16 45t4 20.5q4 20 23.5 22t27.5 -17q10 -30 10 -61q1 -18 17.5 -24.5
t29.5 6.5q26 27 51 50q16 14 33 1q50 -36 100.5 -48.5t84.5 -7.5t66.5 21t44 25.5t17.5 15.5q8 8 19 8t18.5 -7.5zM220 -46q2 6 -1.5 7t-6.5 -4q-63 -93 -102 -175.5t-40 -134.5q-1 -42 12 -44q7 -1 15.5 12t27.5 51q63 139 95 288z" />
    <glyph glyph-name="z" unicode="z" horiz-adv-x="775" 
d="M821 264q7 -8 6 -19t-9 -18t-25.5 -20t-64.5 -38.5t-94 -39.5t-109 -10.5t-115 34.5q-18 12 -34 -3q-28 -28 -57 -59q-8 -11 -3 -25q17 -42 15 -92t-16 -99t-38 -98t-50 -88t-53 -70q-73 -83 -127 -83q-7 0 -15 2q-18 4 -32 17.5t-18 32.5q-17 66 58 201.5t188 273.5
q7 9 6 20.5t-10 18.5q-48 32 -105 36q-10 1 -16.5 8t-7 16.5t5 17.5t14.5 10q63 15 115 38t58 37q-9 7 -20 12q-49 20 -115.5 6.5t-112.5 -48.5q-8 -7 -19 -5.5t-17.5 10.5t-5 19.5t9.5 17.5q57 43 137 58.5t146 -11.5q53 -26 49 -64q-4 -39 -76 -75q-13 -6 -14.5 -21
t10.5 -24h1q8 -7 18.5 -6t17.5 9q30 33 57 59q15 12 34 13.5t36 -9.5q45 -31 99 -35t95.5 8t84 35t58 34.5t23.5 18.5t19 6t18 -9zM135 -346q58 66 98.5 151.5t44.5 158.5q1 20 -17.5 26.5t-31.5 -8.5q-91 -120 -149 -230t-47 -151q1 -11 12 -12q9 -3 34 13t56 52z" />
    <glyph glyph-name="nonbreakingspace" unicode="&#xa0;" horiz-adv-x="485" 
 />
    </font>
</defs>
</svg>
